<?xml version="1.0" standalone="no"?>
<!DOCTYPE svg PUBLIC "-//W3C//DTD SVG 1.1//EN" "http://www.w3.org/Graphics/SVG/1.1/DTD/svg11.dtd">
<svg xmlns="http://www.w3.org/2000/svg">
<metadata>Copyright (C) 2024 by original authors @ fontello.com</metadata>
<defs>
<font id="unico" horiz-adv-x="1000" >
<font-face font-family="unico" font-weight="400" font-stretch="normal" units-per-em="1000" ascent="850" descent="-150" />
<missing-glyph horiz-adv-x="1000" />
<glyph glyph-name="sign" unicode="&#xe800;" d="M641 752c9-7 16-15 21-25l50-86-149-83-48 86c-9 15-12 32-11 49 1 16 7 32 18 46 10 13 24 23 40 28 16 5 33 5 50 1 10-3 20-9 29-16z m91-149l225-402-150-83-224 402 149 83z m254-455l14-199-161 116 147 83z m-88-271c29 16 55 35 78 57-14-7-28-13-43-18-14-6-29-11-44-15-27-9-57-10-85-5-3 1-7 1-10 2-3 0-6 1-9 1-3 1-6 2-8 4-3 0-6 2-8 4-10 6-18 15-23 26-12 27-22 56-28 85-8 33-22 64-39 93-20 31-49 54-84 66-33 11-69 14-103 8-33-4-65-11-96-21-22-7-43-15-64-22-38-14-76-28-114-38-14-4-28-6-43-8-14-2-27-2-41 0-13 2-25 7-35 14-11 7-20 16-26 27-14 24-23 51-25 79-3 30-4 60-1 90-2 63 0 125 6 188-23-60-40-122-51-185-3-33-3-66 1-99 3-35 14-69 32-99 10-16 23-29 39-40 16-10 34-17 52-20 18-3 36-3 54 0 17 1 33 4 50 9 40 10 78 23 115 37 22 8 43 16 65 23 28 9 58 17 88 21 27 5 56 3 83-6 12-4 24-11 34-19 5-4 10-9 14-14l7-8c1-1 2-3 4-5 0-1 1-2 2-3 15-25 25-52 32-80 8-33 18-64 32-94 9-18 23-33 39-43 4-3 9-6 13-7 5-3 9-4 14-6 9-3 18-5 27-6 35 1 69 10 99 27z" horiz-adv-x="1000" />

<glyph glyph-name="add-to-artifact" unicode="&#xe801;" d="M875 599h-62v63c0 34-29 62-63 62-34 0-62-28-62-62v-63h-63c-34 0-62-28-62-62 0-34 28-63 62-63h63v-62c0-34 28-63 62-63 34 0 63 29 63 63v62h62c34 0 63 29 63 63 0 35-29 62-63 62z m-812-125h375c34 0 62 29 62 63 0 34-28 62-62 62h-375c-35 0-63-28-63-62 0-34 28-63 63-63z m500-375h-500c-35 0-63-28-63-62 0-34 28-63 63-63h500c34 0 62 29 62 63 0 35-28 62-62 62z m0 250h-500c-35 0-63-28-63-62 0-34 28-63 63-63h500c34 0 62 29 62 63 0 35-28 62-62 62z" horiz-adv-x="1000" />

<glyph glyph-name="add" unicode="&#xe802;" d="M687 413h-125v125c0 34-28 62-62 62-35 0-63-28-63-62v-125h-125c-34 0-62-28-62-63 0-34 28-62 62-62h125v-125c0-34 28-63 63-63 34 0 62 29 62 63v125h125c34 0 63 28 63 62 0 35-29 63-63 63z m-187 437c-276 0-500-224-500-500 0-276 224-499 500-499 276 0 499 223 499 499 0 276-223 500-499 500z m0-875c-207 0-375 169-375 375 0 207 168 375 375 375 207 0 375-168 375-375 0-206-168-375-375-375z" horiz-adv-x="1000" />

<glyph glyph-name="archive" unicode="&#xe803;" d="M836 850c24 0 46-13 56-34l108-216v-688c0-34-28-62-62-62h-875c-35 0-63 28-63 62v688l108 216c10 21 32 34 56 34h672z m-336-375c-34 0-62-28-62-62v-162l-19 18-5 5c-10 8-24 14-39 14-34 0-62-29-62-63 0-17 6-33 18-44l125-125 6-6c10-8 23-12 38-12 18 0 33 6 44 18l125 125 6 6c8 10 13 23 13 38 0 34-29 63-63 63-17 0-33-7-44-19l-18-18v162l-1 7c-4 31-30 55-62 55z m313 250h-625l-63-125h750l-62 125z" horiz-adv-x="1000" />

<glyph glyph-name="automatic-updates" unicode="&#xe804;" d="M500-25c-207 0-375 168-375 375 0 111 49 210 125 279v-91c0-35 28-63 63-63 34 0 62 28 62 63v250c0 34-28 62-62 62h-250c-35 0-63-28-63-62 0-35 28-63 63-63h108c-104-91-171-225-171-375 0-276 224-500 500-500 34 0 63 28 63 62 0 35-29 63-63 63z m0 750c68 0 130-19 184-51l92 92c-79 53-173 84-276 84-34 0-62-28-62-62 0-35 28-63 62-63z m169-419l313 312c11 11 18 27 18 45 0 34-28 62-62 62-18 0-34-7-45-18l-268-269-81 81c-11 12-26 19-44 19-34 0-62-29-62-63 0-17 6-33 18-44l125-125c11-12 27-18 44-18 18 0 33 6 44 18z m331 44c0 34-4 68-10 100l-117-117c-5-104-50-196-123-261v91c0 34-28 62-62 62-35 0-63-28-63-62v-251c0-34 28-62 63-62h250c34 0 62 28 62 62 0 35-28 63-62 63h-109c104 91 171 225 171 375z" horiz-adv-x="1000" />

<glyph glyph-name="ban-circle" unicode="&#xe805;" d="M500 850c-276 0-500-224-500-500 0-276 224-500 500-500 276 0 500 224 500 500 0 276-224 500-500 500z m188-562h-375c-35 0-63 28-63 62 0 34 28 63 63 63h375c34 0 62-29 62-63 0-34-28-62-62-62z" horiz-adv-x="1000" />

<glyph glyph-name="bookmark" unicode="&#xe806;" d="M646 849h-8c-2 0-2 1-3 1h-346c-2 0-2-1-3-1h-9c-25 0-46-21-46-47v-851c0-26 14-32 33-14l165 170c18 18 48 18 65 0l166-170c18-18 33-12 33 14v851c-1 26-21 47-47 47z" horiz-adv-x="923" />

<glyph glyph-name="bring-data" unicode="&#xe807;" d="M875-25c35 0 63-28 63-63 0-34-28-62-63-62h-750c-34 0-62 28-62 62 0 35 28 63 62 63h750z m-375 687c34 0 62-28 62-62v-349l81 80c11 12 27 18 44 18 35 0 63-28 63-62 0-17-7-33-18-44l-188-188c-11-11-27-18-44-18-17 0-33 7-45 18l-187 188c-11 11-18 27-18 44 0 34 28 62 62 62 18 0 33-6 45-18l80-80v348c0 35 28 63 63 63z m375 188c35 0 63-28 63-62 0-35-28-63-63-63-34 0-62 28-62 63 0 34 28 62 62 62z m-187 0c34 0 62-28 62-62 0-35-28-63-62-63-35 0-63 28-63 63 0 34 28 62 63 62z m-188 0c35 0 63-28 63-62 0-35-28-63-63-63-34 0-62 28-62 63 0 34 28 62 62 62z m-187 0c34 0 62-28 62-62 0-35-28-63-62-63-35 0-63 28-63 63 0 34 28 62 63 62z m-188 0c35 0 63-28 63-62 0-35-28-63-63-63-34 0-62 28-62 63 0 34 28 62 62 62z" horiz-adv-x="1000" />

<glyph glyph-name="build" unicode="&#xe808;" d="M935 61l-453 377 63 65c20 20-7 37 7 74 52 128 201 138 201 138 0 0 21 22 42 43-193 81-323 2-381-49l-201-206-42-42c-23-24-23-62 0-86l-41-42c-23 24-60 24-83 0-23-24-23-62 0-85l83-86c23-23 60-23 83 0 23 24 23 62 0 86l42 42c23-23 60-23 83 0l47 48 376-451c48-48 126-48 174 0 47 48 47 127 0 174z" horiz-adv-x="1000" />

<glyph glyph-name="changes" unicode="&#xe809;" d="M518 368l188-187c11-12 27-18 44-18 18 0 33 6 44 18l188 187c11 11 18 27 18 45 0 34-28 62-62 62-18 0-34-7-45-18l-80-81v412c0 34-29 62-63 62-34 0-62-28-62-62v-412l-81 81c-11 11-27 18-44 18-35 0-63-28-63-62 0-18 7-34 18-45z m388-330h-812c-52 0-94-42-94-94 0-52 42-94 94-94h812c52 0 94 42 94 94 0 52-42 94-94 94z m-843 500c17 0 33 6 44 18l81 81v-412c0-34 28-62 62-62 34 0 63 28 63 62v412l80-81c11-12 27-18 45-18 34 0 62 28 62 62 0 18-7 33-18 44l-188 188c-11 11-26 18-44 18-17 0-33-7-44-18l-188-188c-11-11-18-26-18-44 0-34 28-62 63-62z" horiz-adv-x="1000" />

<glyph glyph-name="chat" unicode="&#xe80a;" d="M375 225c-69 0-125 56-125 125v313h-187c-35 0-63-29-63-63v-500c0-34 28-62 63-62v-126c0-34 28-62 62-62 18 0 33 7 44 18l169 170h287c34 0 63 28 63 62v73l-52 52h-261z m563 625h-563c-34 0-62-28-62-62v-438c0-34 28-62 62-62h287l169-170c11-11 27-18 44-18 34 0 63 28 63 63v125c34 0 62 28 62 62v438c0 34-28 62-62 62z" horiz-adv-x="1000" />

<glyph glyph-name="circle" unicode="&#xe80b;" d="M500 850c-275 0-500-225-500-500 0-275 225-500 500-500 275 0 500 225 500 500 0 275-225 500-500 500z m0-875c-206 0-375 169-375 375 0 206 169 375 375 375 206 0 375-169 375-375 0-206-169-375-375-375z" horiz-adv-x="1000" />

<glyph glyph-name="clean" unicode="&#xe80c;" d="M219 631l94 219 93-219 219-93-219-94-93-219-94 219-219 94 219 93z m456-456l75 175 75-175 175-75-175-75-75-175-75 175-175 75 175 75z" horiz-adv-x="1000" />

<glyph glyph-name="clipboard" unicode="&#xe80d;" d="M688 725c0 34-29 63-63 63h14c-21 37-61 62-108 62-46 0-86-25-107-62h14c-35 0-63-29-63-63v-62h313v62z m125 0h-63v-125h-437v125h-63c-34 0-62-28-62-62v-751c0-34 28-62 62-62h563c34 0 62 28 62 62v751c0 34-28 62-62 62z" horiz-adv-x="1000" />

<glyph glyph-name="comment" unicode="&#xe80e;" d="M875 788h-812c-35 0-63-29-63-63v-562c0-35 28-63 63-63h125v-188c0-34 28-62 62-62 18 0 33 7 44 18l232 232h349c34 0 63 28 63 63v562c0 34-29 63-63 63z m-656-438c-52 0-94 42-94 94 0 52 42 94 94 94 52 0 94-42 94-94 0-52-42-94-94-94z m250 0c-52 0-94 42-94 94 0 52 42 94 94 94 52 0 94-42 94-94 0-52-42-94-94-94z m250 0c-52 0-94 42-94 94 0 52 42 94 94 94 52 0 94-42 94-94 0-52-42-94-94-94z" horiz-adv-x="1000" />

<glyph glyph-name="code" unicode="&#xe80f;" d="M982 394l-188 188c-11 11-26 18-44 18-34 0-62-28-62-62 0-18 6-34 18-45l143-143-143-143c-12-11-18-27-18-44 0-35 28-63 62-63 18 0 33 7 44 18l188 188c11 11 18 27 18 44 0 18-7 33-18 44z m-669 144c0 34-29 62-63 62-17 0-33-7-44-18l-188-188c-11-11-18-26-18-44 0-17 7-33 18-44l188-188c11-11 27-18 44-18 34 0 63 28 63 63 0 17-7 33-19 44l-143 143 143 143c12 11 19 27 19 45z m250 187c-30 0-55-22-60-51l-125-625c-1-3-3-7-3-11 0-35 28-63 63-63 30 0 54 22 60 51l125 625c0 3 2 7 2 12 0 34-28 62-62 62z" horiz-adv-x="1000" />

<glyph glyph-name="comparison" unicode="&#xe810;" d="M529 792c-32 0-59-27-59-59v-824c0-32 27-58 59-58 32 0 59 26 59 58v824c0 32-27 59-59 59z m-177-177h-235c-32 0-59-26-59-58v-118c0-32 27-59 59-59h235c33 0 59 27 59 59v118c0 32-26 58-59 58z m589 0h-236c-32 0-58-26-58-58v-118c0-32 26-59 58-59h236c32 0 58 27 58 59v118c0 32-26 58-58 58z m0-176h-236v118h236v-118z m0-177h-236c-32 0-58-26-58-58v-118c0-32 26-59 58-59h236c32 0 58 27 58 59v118c0 32-26 58-58 58z m0-176h-236v118h236v-118z m-589 176h-235c-32 0-59-26-59-58v-118c0-32 27-59 59-59h235c33 0 59 27 59 59v118c0 32-26 58-59 58z" horiz-adv-x="1000" />

<glyph glyph-name="confirm" unicode="&#xe811;" d="M571 539c-11 11-26 18-42 18-32 0-59-27-59-59 0-17 7-31 17-42l118-118c10-10 25-17 42-17 16 0 31 7 41 17l294 294c11 11 17 26 17 42 0 33-26 59-58 59-17 0-32-6-42-17l-252-253-76 76z m307-177c1-14 4-27 4-41 0-194-158-353-353-353-195 0-353 159-353 353 0 195 158 353 353 353 48 0 93-10 135-27l88 88c-66 36-142 57-223 57-260 0-471-211-471-471 0-260 211-470 471-470 260 0 470 210 470 470 0 49-7 97-21 141l-100-100z" horiz-adv-x="1000" />

<glyph glyph-name="credit-card" unicode="&#xe812;" d="M941 647h-824c-32 0-59-26-59-59v-59h941v59c0 33-26 59-58 59z m-883-588c0-32 27-59 59-59h824c32 0 58 27 58 59v353h-941c0 0 0-353 0-353z m324 118h294c16 0 29-13 29-30 0-16-13-29-29-29h-294c-17 0-30 13-30 29 0 17 14 30 30 30z m-177 0h59c17 0 30-13 30-30 0-16-13-29-30-29h-59c-16 0-29 13-29 29 0 17 13 30 29 30z" horiz-adv-x="1000" />

<glyph glyph-name="cross" unicode="&#xe813;" d="M588 350l206 206c12 11 19 27 19 44 0 34-29 63-63 63-17 0-33-7-44-19l-206-206-206 206c-11 12-26 19-44 19-34 0-62-29-62-63 0-17 6-33 18-44l206-206-206-206c-12-11-18-26-18-44 0-34 28-62 62-62 18 0 33 6 44 18l206 206 206-206c11-12 27-18 44-18 34 0 63 28 63 62 0 18-7 33-19 44l-206 206z" horiz-adv-x="1000" />

<glyph glyph-name="cut" unicode="&#xe814;" d="M813 725c0 0 44 81 0 125l-272-317 66-82 206 274z m4-500c-26 0-51-6-74-16l-536 641c-43-44 0-125 0-125l230-314-173-202c-24 10-50 16-76 16-104 0-188-84-188-187 0-104 84-188 188-188 103 0 187 84 187 188 0 28-7 55-18 79l149 199 146-199c-11-24-18-51-18-79 0-104 82-188 183-188 101 0 183 84 183 188 0 103-82 187-183 187z m-629-250c-35 0-63 28-63 63 0 34 28 62 63 62 34 0 62-28 62-62 0-35-28-63-62-63z m629 0c-34 0-61 28-61 63 0 34 27 62 61 62 34 0 61-28 61-62 0-35-27-63-61-63z" horiz-adv-x="1000" />

<glyph glyph-name="delete" unicode="&#xe815;" d="M750 538c0 34-29 62-63 62-17 0-33-7-44-18l-143-144-143 143c-12 12-27 19-45 19-34 0-62-28-62-62 0-18 7-33 18-45l143-143-143-143c-11-11-18-27-18-44 0-34 28-63 62-63 18 0 33 7 45 19l143 143 143-143c11-12 27-19 44-19 34 0 63 29 63 63 0 17-7 33-19 44l-143 143 143 143c12 12 19 27 19 45z m-250 312c-276 0-500-224-500-500 0-276 224-499 500-499 276 0 499 223 499 499 0 276-223 500-499 500z m0-875c-207 0-375 169-375 375 0 207 168 375 375 375 207 0 375-168 375-375 0-206-168-375-375-375z" horiz-adv-x="1000" />

<glyph glyph-name="deploy" unicode="&#xe816;" d="M188 667h625c34 0 62-28 62-63 0-34-28-62-62-62h-625c-35 0-63 28-63 62 0 35 28 63 63 63z m62-250h521c34 0 62-28 62-63 0-34-28-62-62-62h-521c-34 0-62 28-62 62 0 35 28 63 62 63z m432-242h-330c-35 0-63-28-63-63 0-34 28-62 63-62h330c34 0 62 28 62 62 0 35-28 63-62 63z" horiz-adv-x="1000" />

<glyph glyph-name="derive-column" unicode="&#xe817;" d="M380 433h-52c15 58 35 100 60 127 15 17 30 25 44 25 3 0 5-1 7-2 2-2 2-4 2-7 0-2-2-7-6-13-4-6-6-12-6-18 0-8 3-15 9-21 6-5 15-8 25-8 10 0 19 3 26 10 7 7 11 17 11 28 0 14-6 25-16 34-11 8-28 12-51 12-37 0-70-10-99-30-30-20-58-53-85-99-10-17-18-27-26-31-9-4-22-7-40-6l-12-41h50l-74-273c-13-45-21-72-25-83-6-15-16-28-29-39-5-4-11-6-19-6-1 0-3 0-5 2l-1 2c0 1 1 4 5 7 4 4 6 9 6 16 0 9-3 15-9 20-6 5-14 9-25 9-13 0-24-4-32-10-8-7-13-16-13-25 0-10 5-19 14-27 10-7 25-11 47-11 33 0 62 8 87 24 26 17 48 41 67 75 19 34 39 87 59 162l42 158h52l12 39z m558 417h-438c-34 0-62-28-62-62v-125h125v62h312v-750h-312v63h-125v-126c0-34 28-62 62-62h438c34 0 62 28 62 62v876c0 34-28 62-62 62z m-419-621c11-33 20-56 29-71 8-15 17-25 27-32 11-6 23-10 39-10 15 0 30 5 46 16 21 13 41 36 63 68l-13 7c-14-19-26-31-32-36-5-3-10-4-17-4-7 0-15 4-22 13-13 15-29 57-50 125 19 31 34 51 47 60 9 7 18 10 29 10 4 0 11-1 21-4 10-2 20-3 27-3 11 0 20 3 27 10 6 7 10 16 10 27 0 12-4 21-11 28-7 6-17 10-30 10-12 0-23-3-34-9-11-5-24-16-41-35-12-13-30-36-54-69-9 41-26 79-49 113l-128-20-2-14c9 2 17 3 24 3 13 0 23-5 31-16 13-16 32-64 55-145-18-23-30-38-37-45-11-12-21-19-28-23-5-2-12-4-18-4-6 0-15 2-27 8-8 4-15 6-22 6-13 0-23-4-31-12-8-7-12-17-12-28 0-11 4-20 12-27 7-7 17-10 30-10 12 0 23 2 34 7 11 5 24 15 41 30 15 17 37 41 66 76z" horiz-adv-x="1000" />

<glyph glyph-name="disable" unicode="&#xe818;" d="M529 792c-260 0-471-211-471-471 0-260 211-470 471-470 260 0 470 210 470 470 0 260-210 471-470 471z m-353-471c0 195 158 353 353 353 76 0 146-25 204-66l-491-491c-41 58-66 128-66 204z m353-353c-77 0-147 25-204 66l491 491c41-57 66-127 66-204 0-195-158-353-353-353z" horiz-adv-x="1000" />

<glyph glyph-name="download" unicode="&#xe819;" d="M500 850c-276 0-500-224-500-500 0-276 224-499 500-499 276 0 499 223 499 499 0 276-223 500-499 500z m231-606l-187-188c-11-11-27-18-44-18-18 0-33 7-45 18l-187 188c-11 11-18 26-18 44 0 34 28 62 62 62 18 0 33-7 45-18l80-80v348c0 35 28 63 63 63 34 0 62-28 62-63v-349l81 81c11 11 27 18 44 18 34 0 63-28 63-63 0-17-7-32-19-43z" horiz-adv-x="1000" />

<glyph glyph-name="drag-handle-horizontal" unicode="&#xe81a;" d="M125 288c-34 0-62-29-62-63 0-34 28-62 62-62 34 0 63 28 63 62 0 34-29 63-63 63z m0 250c-34 0-62-29-62-63 0-34 28-62 62-62 34 0 63 28 63 62 0 34-29 63-63 63z m250-250c-34 0-62-29-62-63 0-34 28-62 62-62 34 0 63 28 63 62 0 34-29 63-63 63z m500 125c34 0 63 28 63 62 0 34-29 63-63 63-34 0-62-29-62-63 0-34 28-62 62-62z m0-125c-34 0-62-29-62-63 0-34 28-62 62-62 34 0 63 28 63 62 0 34-29 63-63 63z m-250 250c-34 0-62-29-62-63 0-34 28-62 62-62 34 0 63 28 63 62 0 34-29 63-63 63z m0-250c-34 0-62-29-62-63 0-34 28-62 62-62 34 0 63 28 63 62 0 34-29 63-63 63z m-250 250c-34 0-62-29-62-63 0-34 28-62 62-62 34 0 63 28 63 62 0 34-29 63-63 63z" horiz-adv-x="1000" />

<glyph glyph-name="drag" unicode="&#xe81b;" d="M333 308c-45 0-83-18-83-41 0-23 38-42 83-42 46 0 84 19 84 42 0 23-38 41-84 41z m334 250c46 0 83 19 83 42 0 23-37 42-83 42-46 0-84-19-84-42 0-23 38-42 84-42z m-334-416c-45 0-83-19-83-42 0-23 38-42 83-42 46 0 84 19 84 42 0 23-38 42-84 42z m0 333c-45 0-83-19-83-42 0-23 38-41 83-41 46 0 84 18 84 41 0 23-38 42-84 42z m0 167c-45 0-83-19-83-42 0-23 38-42 83-42 46 0 84 19 84 42 0 23-38 42-84 42z m334-334c-46 0-84-18-84-41 0-23 38-42 84-42 46 0 83 19 83 42 0 23-37 41-83 41z m0 167c-46 0-84-19-84-42 0-23 38-41 84-41 46 0 83 18 83 41 0 23-37 42-83 42z m0-333c-46 0-84-19-84-42 0-23 38-42 84-42 46 0 83 19 83 42 0 23-37 42-83 42z" horiz-adv-x="1000" />

<glyph glyph-name="draw" unicode="&#xe81c;" d="M931 163c-18 0-31-7-43-19l-188-188c-12-12-19-25-19-44 0-37 32-62 63-62 19 0 31 6 44 19l187 187c13 13 19 25 19 44 0 31-25 63-63 63z m-62 62c0 6 0 6 0 13l-63 312c-6 19-18 38-37 44l-688 250-18-19 362-362c13 6 25 12 38 12 50 0 93-44 93-94 0-50-37-93-93-93-57 0-94 43-94 93 0 13 6 25 12 38l-362 362-19-18 250-688c6-19 25-37 44-37l312-63c7 0 7 0 13 0 19 0 31 6 44 19l187 187c13 13 19 25 19 44z" horiz-adv-x="1000" />

<glyph glyph-name="drag-handle-vertical" unicode="&#xe81d;" d="M375 288c-34 0-62-29-62-63 0-34 28-62 62-62 34 0 63 28 63 62 0 34-29 63-63 63z m250 375c34 0 63 28 63 62 0 34-29 63-63 63-34 0-62-29-62-63 0-34 28-62 62-62z m-250-625c-34 0-62-29-62-63 0-34 28-63 62-63 34 0 63 29 63 63 0 34-29 63-63 63z m0 500c-34 0-62-29-62-63 0-34 28-62 62-62 34 0 63 28 63 62 0 34-29 63-63 63z m0 250c-34 0-62-29-62-63 0-34 28-62 62-62 34 0 63 28 63 62 0 34-29 63-63 63z m250-500c-34 0-62-29-62-63 0-34 28-62 62-62 34 0 63 28 63 62 0 34-29 63-63 63z m0 250c-34 0-62-29-62-63 0-34 28-62 62-62 34 0 63 28 63 62 0 34-29 63-63 63z m0-500c-34 0-62-29-62-63 0-34 28-63 62-63 34 0 63 29 63 63 0 34-29 63-63 63z" horiz-adv-x="1000" />

<glyph glyph-name="duplicate" unicode="&#xe81e;" d="M938 850h-625c-35 0-63-28-63-62v-125h125v62h500v-437h-62v-125h125c34 0 62 28 62 62v563c0 34-28 62-62 62z m-250-250h-625c-35 0-63-28-63-62v-626c0-34 28-62 63-62h625c34 0 62 28 62 62v626c0 34-28 62-62 62z m-63-625h-500v500h500v-500z" horiz-adv-x="1000" />

<glyph glyph-name="endorsed" unicode="&#xe81f;" d="M915 340l-47 82v92c0 20-11 39-28 50l-79 46-47 81c-11 18-29 28-49 28h-94l-81 46c-17 11-39 11-57 0l-80-46h-92c-21 0-39-11-50-28l-46-79-83-48c-17-11-28-30-28-50v-96l-46-79c-5-8-8-18-8-28 0-10 3-20 8-28l46-79v-95c0-21 11-40 29-51l81-46 47-80c11-17 29-28 49-28h92l80-46c9-5 19-8 28-8 9 0 19 3 28 8l80 46h94c21 0 40 11 50 28l47 82 79 46c17 11 28 29 28 50v90l47 82c13 18 13 40 2 58z m-238 48l-231-232c-10-10-25-16-41-16-16 0-31 6-41 16l-115 116c-11 11-18 25-18 41 0 31 26 57 58 57 16 0 31-6 41-16l75-75 190 190c11 10 25 17 41 17 32 0 58-26 58-58 1-15-6-30-17-40z" horiz-adv-x="923" />

<glyph glyph-name="edit" unicode="&#xe820;" d="M203 209l155-155 418 419-154 155-419-419z m-141-296l241 87-154 153-87-240z m766 875c-30 0-58-12-78-32l-90-90 154-154 90 90c20 20 32 47 32 77 1 60-48 109-108 109z" horiz-adv-x="1000" />

<glyph glyph-name="equals" unicode="&#xe821;" d="M188 538h625c34 0 62-28 62-63 0-34-28-62-62-62h-625c-35 0-63 28-63 62 0 35 28 63 63 63z m0-250h625c34 0 62-28 62-63 0-34-28-62-62-62h-625c-35 0-63 28-63 62 0 35 28 63 63 63z" horiz-adv-x="1000" />

<glyph glyph-name="exchange" unicode="&#xe822;" d="M176 468c-65 0-118-53-118-117 0-65 53-118 118-118 65 0 118 53 118 118 0 64-53 117-118 117z m244-109c5-5 13-9 21-9 16 0 29 13 29 29 0 9-3 16-9 21l-67 68h341c16 0 29 13 29 30 0 16-13 29-29 29h-341l68 68c5 5 9 13 9 20 0 17-13 30-30 30-8 0-15-4-20-9l-118-118c-6-5-9-12-9-20 0-9 3-16 8-21l118-118z m462 109c-65 0-118-53-118-117 0-65 53-118 118-118 65 0 117 53 117 118 0 64-52 117-117 117z m-244-126c-6 5-13 9-21 9-16 0-29-13-29-30 0-8 3-15 9-20l67-68h-341c-16 0-29-13-29-29 0-17 13-30 29-30h341l-68-67c-5-6-9-13-9-21 0-17 13-29 30-29 8 0 15 3 20 8l118 118c5 5 9 13 9 21 0 7-4 15-9 20l-117 118z" horiz-adv-x="1000" />

<glyph glyph-name="export" unicode="&#xe823;" d="M250 475c18 0 33 7 44 18l144 144v-474c0-35 28-63 62-63 34 0 63 28 63 63v474l143-143c11-12 27-19 44-19 34 0 63 28 63 63 0 17-7 33-19 44l-250 250c-11 11-26 18-44 18-17 0-33-7-44-18l-250-250c-12-11-18-27-18-44 0-35 28-63 62-63z m688-312c-35 0-63-29-63-63v-125h-750v125c0 34-28 63-62 63-35 0-63-29-63-63v-188c0-34 28-62 63-62h875c34 0 62 28 62 62v188c0 34-28 63-62 63z" horiz-adv-x="1000" />

<glyph glyph-name="filter-keep" unicode="&#xe824;" d="M938 225c-18 0-34-7-45-18l-143-144-81 81c-11 12-26 19-44 19-34 0-62-29-62-63 0-17 6-33 18-44l125-125c11-12 27-19 44-19 18 0 33 7 44 19l188 187c11 11 18 27 18 45 0 34-28 62-62 62z m-188 500c0 34-28 63-62 63h-625c-35 0-63-29-63-63 0-17 7-33 18-44l232-232v-349c0-34 28-62 63-62 17 0 33 6 44 18l125 125c11 11 18 27 18 44v224l232 232c11 11 18 27 18 44z" horiz-adv-x="1000" />

<glyph glyph-name="filter-list" unicode="&#xe825;" d="M563 350c0-34 28-62 62-62h313c34 0 62 28 62 62 0 34-28 63-62 63h-313c-34 0-62-29-62-63z m187 375c0 34-28 63-62 63h-625c-35 0-63-29-63-63 0-17 7-33 18-44l232-232v-349c0-34 28-62 63-62 17 0 33 6 44 18l125 125c11 11 18 27 18 44v224l232 232c11 11 18 27 18 44z m188-500h-313c-34 0-62-28-62-62 0-35 28-63 62-63h313c34 0 62 28 62 63 0 34-28 62-62 62z m0-187h-313c-34 0-62-29-62-63 0-34 28-63 62-63h313c34 0 62 29 62 63 0 34-28 63-62 63z" horiz-adv-x="1000" />

<glyph glyph-name="filter-open" unicode="&#xe826;" d="M982 207c24-25 24-64 0-89l-188-187c-39-40-106-12-106 44v375c0 56 67 84 106 44l188-187z m-232 518c0-17-7-33-18-44l-232-232v-224c0-17-7-33-18-44l-125-125c-11-12-27-18-44-18-35 0-63 28-63 62v349l-232 232c-11 11-18 27-18 44 0 34 28 63 63 63h625c34 0 62-29 62-63z" horiz-adv-x="1000" />

<glyph glyph-name="filter-remove" unicode="&#xe827;" d="M750 725c0 34-28 63-62 63h-625c-35 0-63-29-63-63 0-17 7-33 18-44l232-232v-349c0-34 28-62 63-62 17 0 33 6 44 18l125 125c11 11 18 27 18 44v224l232 232c11 11 18 27 18 44z m151-625l80 81c12 11 19 27 19 44 0 34-28 63-62 63-18 0-34-7-45-19l-80-81-81 81c-11 12-27 19-44 19-35 0-63-29-63-63 0-17 7-33 18-44l81-81-80-81c-12-11-19-27-19-44 0-34 28-63 63-63 17 0 33 7 44 19l81 81 80-81c11-12 27-19 45-19 34 0 62 29 62 63 0 17-7 33-18 44l-81 81z" horiz-adv-x="1000" />

<glyph glyph-name="filter" unicode="&#xe828;" d="M874 788h-750c-34 0-62-28-62-62 0-18 7-33 18-45l294-294v-412c0-34 29-63 63-63 17 0 33 7 44 19l125 125c12 11 18 27 18 44v287l295 294c11 12 18 27 18 45 0 34-28 62-63 62z" horiz-adv-x="1000" />

<glyph glyph-name="fork" unicode="&#xe829;" d="M817 278c-10 10-24 16-40 16-30 0-55-25-55-55 0-16 6-30 16-40l16-16h-65l-278 278h343l-16-16c-10-10-16-24-16-39 0-31 25-56 55-56 16 0 30 6 40 16l111 111c10 10 16 24 16 40 0 15-6 29-16 39l-111 111c-10 10-24 16-40 16-30 0-55-25-55-55 0-16 6-30 16-40l16-16h-643c-31 0-56-25-56-55 0-31 25-56 56-56h143l373-373c10-10 24-16 40-16h88l-16-16c-10-10-16-24-16-39 0-31 25-56 55-56 16 0 30 6 40 16l111 111c10 10 16 24 16 40 0 15-6 29-16 39l-112 111z" horiz-adv-x="1000" />

<glyph glyph-name="geosearch" unicode="&#xe82a;" d="M519 62h39c13 0 21 10 21 23v87l11 11c-16-2-32-4-49-4-16 0-33 2-49 5 1-3 3-5 4-8v-91c0-13 9-23 23-23z m-142-159c-179 0-324 145-324 324 0 28 4 57 11 84 1 0 3 0 4 0h5v-26c0-11 10-20 21-20 2 0 4 1 6 1l42-41c4-4 11-4 15 0 4 4 4 11 0 15l-41 42c0 2 2 2 2 3v7c0 9 4 12 13 19h25c5 0 9 1 13 3 0 0 1 0 1 0 1 1 2 1 2 2 1 1 1 1 2 1l1 0 53 53c-8 15-14 31-20 47h-30v25c0 1 3-3 3 5h18c-2 8-4 15-5 23h-33c9 7 20 14 30 21-2 14-3 27-3 41 0 7 1 14 1 20-112-64-189-186-189-325 0-208 169-377 377-377 182 0 333 131 368 303l-46 52c-12-168-152-302-322-302z m-100 172v17h7c13 0 23 11 23 25v31c0 0 0 1 0 1l-85 86h-37c-13 0-22-11-22-24v-94c0-14 8-25 22-25h16v-95c0-14 13-24 26-24 14 0 27 10 27 24v57h-1c14 0 24 8 24 21z m651 138l-173 173c6 10 12 20 17 31 1 1 2 3 3 5 4 10 9 21 13 32 0 0 0 0 0 1 3 11 6 22 8 34 1 3 1 5 1 8 2 12 3 24 3 36 0 143-116 259-259 259-143-1-259-117-259-260 0-143 116-258 259-258 13 0 24 1 36 3 2 0 5 0 8 1 12 1 23 4 34 8 0 0 0 0 1 0 11 3 22 8 32 13 2 0 4 2 6 2 10 6 20 11 30 18l173-173c8-8 20-14 34-14 26 0 47 22 47 47-1 13-6 25-14 34z m-387 131c-104 0-188 84-188 188 0 105 84 189 188 189 104 0 188-84 188-189 0-104-84-188-188-188z m91-250v30c0 5-6 10-11 10-6 0-12-4-12-10v-30c0-6 6-10 12-10 5 0 11 4 11 10z" horiz-adv-x="1000" />

<glyph glyph-name="git-branch" unicode="&#xe82b;" d="M750 788c-104 0-187-84-187-188 0-78 47-145 115-173-19-45-64-77-115-77h-125c-46 0-89-12-125-34v170c72 27 125 95 125 177 0 103-84 187-188 187-104 0-187-84-187-187 0-82 52-150 125-177v-273c-73-25-125-94-125-175 0-104 83-188 187-188 104 0 188 84 188 188 0 65-34 121-83 155 22 20 51 32 83 32h125c120 0 220 84 244 197 76 24 131 94 131 178 0 104-84 188-188 188z m-500-63c34 0 63-28 63-62 0-35-29-63-63-63-34 0-62 28-62 63 0 34 28 62 62 62z m0-750c-34 0-62 28-62 63 0 34 28 62 62 62 34 0 63-28 63-62 0-35-29-63-63-63z m500 563c-34 0-62 28-62 62 0 34 28 63 62 63 34 0 63-29 63-63 0-34-29-62-63-62z" horiz-adv-x="1000" />

<glyph glyph-name="git-commit" unicode="&#xe82c;" d="M938 413h-197c-28 107-125 187-241 187-116 0-213-80-241-187h-196c-35 0-63-29-63-63 0-34 28-62 63-62h196c28-108 125-188 241-188 116 0 213 80 241 188h197c34 0 62 28 62 62 0 34-28 63-62 63z m-438-188c-69 0-125 56-125 125 0 69 56 125 125 125 69 0 125-56 125-125 0-69-56-125-125-125z" horiz-adv-x="1000" />

<glyph glyph-name="git-merge" unicode="&#xe82d;" d="M750 475c-81 0-150-52-176-125h-11c-102 0-188 60-227 146 60 32 102 94 102 167 0 103-84 187-188 187-104 0-187-84-187-187 0-82 52-150 125-176v-273c-73-26-125-95-125-176 0-104 83-188 187-188 104 0 188 84 188 188 0 81-53 150-125 176v109c66-60 153-98 250-98h11c25-72 94-125 176-125 104 0 188 84 188 188 0 103-84 187-188 187z m-500-500c-34 0-62 28-62 63 0 34 28 62 62 62 34 0 63-28 63-62 0-35-29-63-63-63z m0 625c-34 0-62 28-62 63 0 34 28 62 62 62 34 0 63-28 63-62 0-35-29-63-63-63z m500-375c-34 0-62 28-62 63 0 34 28 62 62 62 34 0 63-28 63-62 0-35-29-63-63-63z" horiz-adv-x="1000" />

<glyph glyph-name="git-new-branch" unicode="&#xe82e;" d="M875 725h-62v63c0 34-29 62-63 62-34 0-62-28-62-62v-63h-63c-34 0-62-28-62-62 0-35 28-63 62-63h63v-62c0-35 28-63 62-63 34 0 63 28 63 63v62h62c34 0 63 28 63 63 0 34-29 62-63 62z m-199-300c-19-44-62-75-113-75h-125c-46 0-89-12-125-34v170c72 27 125 95 125 177 0 103-84 187-188 187-104 0-187-84-187-187 0-82 52-150 125-177v-273c-73-25-125-94-125-175 0-104 83-188 187-188 104 0 188 84 188 188 0 65-34 121-83 155 22 20 51 32 83 32h125c118 0 218 83 243 194-18-4-37-6-56-6-26 0-50 5-74 12z m-426 300c34 0 63-28 63-62 0-35-29-63-63-63-34 0-62 28-62 63 0 34 28 62 62 62z m0-750c-34 0-62 28-62 63 0 34 28 62 62 62 34 0 63-28 63-62 0-35-29-63-63-63z" horiz-adv-x="1000" />

<glyph glyph-name="git-pull" unicode="&#xe82f;" d="M188 788c-104 0-188-84-188-188 0-81 53-150 125-176v-211c-72-25-125-94-125-175 0-104 84-188 188-188 103 0 187 84 187 188 0 81-52 150-125 176v210c73 26 125 95 125 176 0 104-84 188-187 188z m0-813c-35 0-63 28-63 63 0 34 28 62 63 62 34 0 62-28 62-62 0-35-28-63-62-63z m0 563c-35 0-63 28-63 62 0 34 28 63 63 63 34 0 62-29 62-63 0-34-28-62-62-62z m687-324v261c0 104-84 188-187 188h-100l81 80c12 11 19 27 19 45 0 34-29 62-63 62-17 0-33-7-44-18l-188-188c-11-11-18-26-18-44 0-17 7-33 18-44l188-188c11-11 27-18 44-18 34 0 63 28 63 63 0 17-7 33-19 44l-81 81h100c34 0 62-29 62-63v-261c-72-26-125-95-125-176 0-104 84-188 188-188 103 0 187 84 187 188 0 81-52 150-125 176z m-62-239c-35 0-63 28-63 63 0 34 28 62 63 62 34 0 62-28 62-62 0-35-28-63-62-63z" horiz-adv-x="1000" />

<glyph glyph-name="git-push" unicode="&#xe830;" d="M250 475h63v63h-63v-63z m563-187c0 17-7 33-19 44l-187 187c-11 12-27 19-44 19-18 0-34-7-45-19l-187-187c-12-11-18-27-18-44 0-35 28-63 62-63 18 0 33 7 44 18l81 81v-412c0-34 28-62 63-62 34 0 62 28 62 62v412l81-80c11-12 27-19 44-19 34 0 63 28 63 63z m-500 375h-63v-63h63v63z m625 187h-875c-35 0-63-28-63-62v-813c0-34 28-63 63-63h312v126h-250v62h250v63h-187v562h687v-562h-125v-63h125v-62h-125v-126h188c34 0 62 29 62 63v813c0 34-28 62-62 62z" horiz-adv-x="1000" />

<glyph glyph-name="git-repo" unicode="&#xe831;" d="M313 288h-63v-63h63v63z m625 562h-875c-35 0-63-28-63-62v-813c0-34 28-63 63-63h187v-62l125 62 125-62v62h438c34 0 62 29 62 63v813c0 34-28 62-62 62z m-688-812h-125v62h125v-62z m625 0h-375v62h375v-62z m0 125h-687v562h687v-562z m-562 500h-63v-63h63v63z m0-250h-63v-63h63v63z m0 125h-63v-63h63v63z" horiz-adv-x="1000" />

<glyph glyph-name="graph-remove" unicode="&#xe832;" d="M806 343l-1 0-24 23-23-23-2 1c-33-35-79-56-131-56-104 0-187 83-187 187 0 52 21 98 56 131l-1 2 23 23-23 24 0 1c-34 33-55 80-55 132 0 21 4 40 10 60-252-27-448-239-448-498 0-276 224-500 500-500 259 0 471 196 498 448-20-6-39-10-60-10-52 0-99 21-132 55z m63 288l112 112c12 11 19 27 19 45 0 34-28 62-62 62-18 0-34-7-45-18l-112-113-112 112c-11 12-26 19-44 19-34 0-62-28-62-62 0-18 6-34 18-45l112-112-112-112c-12-11-18-26-18-44 0-34 28-62 62-62 18 0 33 6 44 18l112 112 112-112c11-12 27-18 45-18 34 0 62 28 62 62 0 18-7 33-18 44l-113 112z" horiz-adv-x="1000" />

<glyph glyph-name="greater-than-or-equal-to" unicode="&#xe833;" d="M170 603c-33 10-52 44-42 78 10 33 44 51 78 41l625-187c59-18 59-102 0-120l-625-187c-34-10-68 9-78 42-10 33 9 67 42 77l425 128-425 128z m18-503h625c34 0 62-28 62-62 0-35-28-63-62-63h-625c-35 0-63 28-63 63 0 34 28 62 63 62z" horiz-adv-x="1000" />

<glyph glyph-name="greater-than" unicode="&#xe834;" d="M170 478c-33 10-52 44-42 78 10 33 44 51 78 41l625-187c59-18 59-102 0-120l-625-187c-34-10-68 9-78 42-10 33 9 67 42 77l425 128-425 128z" horiz-adv-x="1000" />

<glyph glyph-name="group-objects" unicode="&#xe835;" d="M313 475c-69 0-125-56-125-125 0-69 56-125 125-125 68 0 125 56 125 125 0 69-57 125-125 125z m375 188h-375c-173 0-313-140-313-313 0-172 140-312 313-312h375c172 0 312 140 312 312 0 173-140 313-312 313z m0-563h-375c-139 0-250 112-250 250 0 138 111 250 250 250h375c138 0 250-112 250-250 0-138-112-250-250-250z m0 375c-69 0-125-56-125-125 0-69 56-125 125-125 68 0 125 56 125 125 0 69-57 125-125 125z" horiz-adv-x="1000" />

<glyph glyph-name="highlight" unicode="&#xe836;" d="M570 158l125 126 44-44 250 253-353 357-250-252 44-45-125-126 265-269z m-445-119h250c18 0 33 7 44 19l63 63-214 216-187-189c-12-12-18-28-18-45 0-35 28-64 62-64z m813-63h-875c-35 0-63-28-63-63 0-35 28-63 63-63h875c34 0 62 28 62 63 0 35-28 63-62 63z" horiz-adv-x="1000" />

<glyph glyph-name="help" unicode="&#xe837;" d="M500 850c-276 0-500-224-500-500 0-276 224-500 500-500 276 0 500 224 500 500 0 276-224 500-500 500z m63-812h-125v125h125v-125z m120 407c-9-20-22-40-39-61l-66-86c-7-9-15-18-17-26-3-8-6-19-6-33v-14h-110v70c0 0 3 32 13 44l67 90c14 17 22 31 28 43 5 12 7 24 7 36 0 19-6 35-17 47-12 12-28 18-48 18-21 0-37-7-49-19-12-11-20-28-25-50-2-7-6-10-12-9l-106 16c-8 0-10 5-9 12 7 51 29 91 64 121 36 30 83 45 141 45 29 0 56-5 80-14 25-9 45-21 63-37 17-15 31-34 41-55 9-22 13-45 13-70 0-25-4-47-13-68z" horiz-adv-x="1000" />

<glyph glyph-name="history" unicode="&#xe838;" d="M500 663c-34 0-62-29-62-63v-250c0-17 6-33 18-44l125-125c11-12 27-18 44-18 34 0 63 28 63 62 0 18-7 33-19 44l-106 107v224c0 34-29 63-63 63z m0 187c-150 0-284-67-375-171v109c0 34-28 62-62 62-35 0-63-28-63-62v-250c0-35 28-63 63-63h250c34 0 62 28 62 63 0 34-28 62-62 62h-92c69 76 168 125 279 125 207 0 375-168 375-375 0-163-104-301-250-352v1c-39-15-81-24-125-24-207 0-375 168-375 375 0 34-28 63-62 63-35 0-63-29-63-63 0-276 224-500 500-500 21 0 42 2 63 4 1 0 2 1 3 1 245 32 434 241 434 495 0 276-224 500-500 500z" horiz-adv-x="1000" />

<glyph glyph-name="import" unicode="&#xe839;" d="M456 118c11-11 27-18 44-18 18 0 33 7 44 18l250 250c12 11 19 27 19 45 0 34-29 62-63 62-17 0-33-7-44-18l-143-144v475c0 34-29 62-63 62-34 0-62-28-62-62v-475l-144 144c-11 11-26 18-44 18-34 0-62-28-62-62 0-18 6-34 18-45l250-250z m482 45c-35 0-63-29-63-63v-125h-750v125c0 34-28 63-62 63-35 0-63-29-63-63v-188c0-34 28-62 63-62h875c34 0 62 28 62 62v188c0 34-28 63-62 63z" horiz-adv-x="1000" />

<glyph glyph-name="inheritance" unicode="&#xe83a;" d="M313 350c0-104 83-187 187-187h287l-81 80c-12 11-18 27-18 45 0 34 28 62 62 62 18 0 33-7 44-18l188-188c11-11 18-26 18-44 0-17-7-33-18-44l-188-188c-11-11-26-18-44-18-34 0-62 28-62 62 0 18 6 34 18 45l81 81h-287c-172 0-312 140-312 312h-125c-35 0-63 28-63 63v375c0 34 28 62 63 62h375c34 0 62-28 62-62v-375c0-35-28-63-62-63h-125z m-188 375v-250h250v250h-250z" horiz-adv-x="1000" />

<glyph glyph-name="inner-join" unicode="&#xe83b;" d="M413 644c-82-69-132-175-132-294 0-119 50-225 132-294-32-12-63-18-100-18-175 0-313 137-313 312 0 175 138 313 313 313 37 0 68-7 100-19z m-123-543c-45 72-71 158-71 249 0 91 26 177 71 249-127-11-227-118-227-249 0-131 100-237 227-249z m210 499c-75-56-125-150-125-250 0-100 50-194 125-250 75 56 125 144 125 250 0 106-50 194-125 250z m188 63c175 0 312-138 312-313 0-175-137-312-312-312-38 0-69 6-100 18 81 69 131 182 131 294 0 113-50 219-131 294 31 12 62 19 100 19z m21-64c46-72 72-158 72-249 0-91-27-177-72-249 128 12 228 119 228 249 0 130-100 238-228 249z" horiz-adv-x="1000" />

<glyph glyph-name="insert" unicode="&#xe83c;" d="M313 288h125v-125c0-38 25-63 62-63 38 0 63 25 63 63v125h125c37 0 62 25 62 62 0 38-25 63-62 63h-125v125c0 37-25 62-63 62-37 0-62-25-62-62v-125h-125c-38 0-63-25-63-63 0-37 25-62 63-62z m625 562h-875c-38 0-63-25-63-62v-876c0-37 25-62 63-62h875c37 0 62 25 62 62v876c0 37-25 62-62 62z m-63-875h-750v750h750v-750z" horiz-adv-x="1000" />

<glyph glyph-name="intersection" unicode="&#xe83d;" d="M625 663c-57 0-110-17-156-44-46 27-99 44-156 44-173 0-313-140-313-313 0-172 140-312 313-312 57 0 110 16 156 43 46-27 99-43 156-43 173 0 313 140 313 312 0 173-140 313-313 313z m-256-491c-18-6-37-9-56-9-104 0-188 83-188 187 0 104 84 188 188 188 19 0 38-4 56-10-36-50-56-112-56-178 0-66 20-127 56-178z m256-9c-19 0-38 3-56 9 35 51 56 112 56 178 0 66-21 128-56 178 18 6 37 10 56 10 104 0 188-84 188-188 0-104-84-187-188-187z" horiz-adv-x="1000" />

<glyph glyph-name="left-join" unicode="&#xe83e;" d="M413 644c-32 12-63 19-100 19-175 0-313-138-313-313 0-175 138-312 313-312 37 0 68 6 100 18-82 69-132 175-132 294 0 119 50 225 132 294z m87-44c-75-56-125-150-125-250 0-100 50-194 125-250 75 56 125 144 125 250 0 106-50 194-125 250z m188 63c175 0 312-138 312-313 0-175-137-312-312-312-38 0-69 6-100 18 81 69 131 182 131 294 0 113-50 219-131 294 31 12 62 19 100 19z m21-64c46-72 72-158 72-249 0-91-27-177-72-249 128 12 228 119 228 249 0 130-100 238-228 249z" horiz-adv-x="1000" />

<glyph glyph-name="less-than-or-equal-to" unicode="&#xe83f;" d="M830 603c34 10 52 44 42 78-10 33-44 51-77 41l-625-187c-60-18-60-102 0-120l625-187c33-10 67 9 77 42 10 33-8 67-42 77l-425 128 425 128z m-17-503h-625c-35 0-63-28-63-62 0-35 28-63 63-63h625c34 0 62 28 62 63 0 34-28 62-62 62z" horiz-adv-x="1000" />

<glyph glyph-name="locate" unicode="&#xe840;" d="M938 413h-6c-28 190-178 341-369 368v7c0 34-29 62-63 62-34 0-62-28-62-62v-6c-191-28-342-178-369-369h-6c-35 0-63-29-63-63 0-34 28-62 63-62h6c27-192 177-342 369-370v-6c0-34 28-62 62-62 34 0 63 28 63 62v6c190 28 341 178 368 370h7c34 0 62 28 62 62 0 34-28 63-62 63z m-377-369c-3 31-28 56-61 56-32 0-58-25-61-56-123 25-221 122-245 245 31 3 56 29 56 61 0 33-25 58-56 61 24 123 122 220 245 245 3-31 29-56 61-56 33 0 58 25 61 56 123-24 220-122 245-245-31-3-56-28-56-61 0-32 25-58 56-61-24-123-122-220-245-245z m-61 431c-69 0-125-56-125-125 0-69 56-125 125-125 69 0 125 56 125 125 0 69-56 125-125 125z" horiz-adv-x="1000" />

<glyph glyph-name="less-than" unicode="&#xe841;" d="M831 478c33 10 51 44 41 77-10 34-44 52-77 42l-625-187c-60-18-60-102 0-120l625-187c33-10 67 9 77 42 10 33-8 67-41 77l-426 128 426 128z" horiz-adv-x="1000" />

<glyph glyph-name="lock" unicode="&#xe842;" d="M873 413h-123v190c0 136-112 247-250 247-138 0-250-111-250-247v-190h-127c-35 0-60-22-60-57v-432c0-33 25-74 60-74h750c34 0 65 41 65 74v432c0 35-31 57-65 57z m-498 0v190c0 68 56 123 125 123 69 0 125-55 125-123v-190h-250z" horiz-adv-x="1000" />

<glyph glyph-name="log-in" unicode="&#xe843;" d="M688 350c0 18-7 33-19 44l-187 188c-11 11-27 18-44 18-35 0-63-28-63-62 0-18 7-34 18-45l81-80h-411c-35 0-63-29-63-63 0-34 28-62 63-62h411l-80-81c-12-11-19-27-19-44 0-35 28-63 63-63 17 0 33 7 44 18l187 188c12 11 19 27 19 44z m250 500h-375c-35 0-63-28-63-62 0-35 28-63 63-63h312v-750h-312c-35 0-63-28-63-63 0-34 28-62 63-62h375c34 0 62 28 62 62v876c0 34-28 62-62 62z" horiz-adv-x="1000" />

<glyph glyph-name="log-out" unicode="&#xe844;" d="M438-25h-313v750h313c34 0 62 28 62 63 0 34-28 62-62 62h-375c-35 0-63-28-63-62v-876c0-34 28-62 63-62h375c34 0 62 28 62 62 0 35-28 63-62 63z m544 419l-188 188c-11 11-26 18-44 18-34 0-62-28-62-62 0-18 6-34 18-45l81-80h-412c-34 0-62-29-62-63 0-34 28-62 62-62h412l-81-81c-12-11-18-27-18-44 0-35 28-63 62-63 18 0 33 7 44 18l188 188c11 11 18 27 18 44 0 18-7 33-18 44z" horiz-adv-x="1000" />

<glyph glyph-name="maximize" unicode="&#xe845;" d="M411 262c-16 0-31-6-42-17l-193-193v93c0 33-27 59-59 59-32 0-59-26-59-59v-235c0-32 27-59 59-59h235c33 0 59 27 59 59 0 32-26 59-59 59h-93l194 193c11 10 17 25 17 42 0 32-26 58-59 58z m530 530h-236c-32 0-58-27-58-59 0-32 26-59 58-59h94l-194-194c-11-11-17-25-17-41 0-32 26-59 59-59 16 0 31 7 41 17l194 194v-94c0-32 26-59 59-59 32 0 58 27 58 59v235c0 33-26 60-58 60z" horiz-adv-x="1000" />

<glyph glyph-name="merge-links" unicode="&#xe846;" d="M500 413c-34 0-62-29-62-63 0-34 28-62 62-62 34 0 63 28 63 62 0 34-29 63-63 63z m0-250c-34 0-62-29-62-63 0-34 28-62 62-62 34 0 63 28 63 62 0 34-29 63-63 63z m0 500c-34 0-62-29-62-63 0-34 28-62 62-62 34 0 63 28 63 62 0 34-29 63-63 63z m375-188c-58 0-107-40-121-94h-66v282c0 103-84 187-188 187-104 0-187-84-187-187v-282h-67c-14 54-63 94-121 94-69 0-125-56-125-125 0-69 56-125 125-125 58 0 107 40 121 94h67v-281c0-104 83-188 187-188 104 0 188 84 188 188v281h66c14-54 63-94 121-94 69 0 125 56 125 125 0 69-56 125-125 125z m-250-437c0-69-56-126-125-126-69 0-125 57-125 126v625c0 68 56 125 125 125 69 0 125-57 125-125v-625z" horiz-adv-x="1000" />

<glyph glyph-name="minimize" unicode="&#xe847;" d="M970 733c0 32-26 59-59 59-16 0-31-7-42-17l-193-194v93c0 33-27 59-59 59-32 0-59-26-59-59v-235c0-32 27-59 59-59h235c33 0 59 27 59 59 0 32-26 59-59 59h-93l194 193c11 11 17 26 17 42z m-588-471h-235c-33 0-59-26-59-58 0-33 26-59 59-59h93l-193-194c-11-10-18-25-18-42 0-32 27-58 59-58 17 0 31 6 42 17l194 193v-93c0-33 26-59 58-59 33 0 59 26 59 59v235c0 33-27 59-59 59z" horiz-adv-x="1000" />

<glyph glyph-name="minus" unicode="&#xe848;" d="M813 413h-625c-35 0-63-29-63-63 0-34 28-62 63-62h625c34 0 62 28 62 62 0 34-28 63-62 63z" horiz-adv-x="1000" />

<glyph glyph-name="move" unicode="&#xe849;" d="M982 394l-125 125c-11 12-27 19-44 19-35 0-63-29-63-63 0-17 7-33 18-44l19-18h-224v224l18-18c11-12 27-19 44-19 34 0 63 28 63 63 0 17-7 33-19 44l-125 125c-11 11-26 18-44 18-17 0-33-7-44-18l-125-125c-12-11-18-27-18-44 0-35 28-63 62-63 18 0 33 7 44 18l19 19v-224h-225l18 18c12 11 19 27 19 44 0 34-28 63-62 63-18 0-34-7-45-19l-125-125c-11-11-18-26-18-44 0-17 7-33 18-44l125-125c11-12 27-18 45-18 34 0 62 28 62 62 0 18-7 33-18 44l-19 19h225v-225l-19 18c-11 12-26 19-44 19-34 0-62-28-62-62 0-18 6-34 18-45l125-125c11-11 27-18 44-18 18 0 33 7 44 18l125 125c12 11 19 27 19 45 0 34-29 62-63 62-17 0-33-7-44-18l-18-19v225h224l-18-19c-12-11-19-26-19-44 0-34 28-62 63-62 17 0 33 6 44 18l125 125c11 11 18 27 18 44 0 18-7 33-18 44z" horiz-adv-x="1000" />

<glyph glyph-name="new-object" unicode="&#xe84a;" d="M500 600c0-37 25-62 63-62h125v-125c0-38 25-63 62-63 38 0 63 25 63 63v125h125c37 0 62 25 62 62 0 38-25 63-62 63h-125v125c0 37-25 62-63 62-37 0-62-25-62-62v-125h-125c-38 0-63-32-63-63z m406-156v-31c0-88-68-157-156-157-87 0-156 69-156 157v31h-31c-88 0-157 69-157 156 0 88 69 156 157 156h31v32c0 18 6 37 6 50-31 6-62 12-100 12-275 0-500-225-500-500 0-275 225-500 500-500 275 0 500 225 500 500 0 38-6 81-12 119-25-19-50-25-82-25z" horiz-adv-x="1000" />

<glyph glyph-name="new-link" unicode="&#xe84b;" d="M938 663h-63v62c0 34-28 63-62 63-35 0-63-29-63-63v-62h-62c-35 0-63-29-63-63 0-34 28-62 63-62h62v-63c0-34 28-62 63-62 34 0 62 28 62 62v63h63c34 0 62 28 62 62 0 34-28 63-62 63z m-219-375c-76 0-139-54-153-125h-257c-14 71-77 125-153 125-86 0-156-70-156-157 0-86 70-156 156-156 76 0 139 54 153 125h257c14-71 77-125 153-125 86 0 156 70 156 156 0 87-70 157-156 157z" horiz-adv-x="1000" />

<glyph glyph-name="new-text-box" unicode="&#xe84c;" d="M313 444c0-18 13-31 31-31h94v-219c0-18 13-31 31-31 17 0 31 13 31 31v219h94c17 0 31 13 31 31 0 17-14 31-31 31h-250c-18 0-31-14-31-31z m625 281h-63v63c0 34-28 62-62 62-35 0-63-28-63-62v-63h-62c-35 0-63-28-63-62 0-35 28-63 63-63h62v-62c0-35 28-63 63-63 34 0 62 28 62 63v62h63c34 0 62 28 62 63 0 34-28 62-62 62z m-125-312c-35 0-63-29-63-63v-312h-562v562h312c34 0 63 28 63 63 0 34-29 62-63 62h-375c-34 0-62-28-62-62v-688c0-34 28-63 62-63h688c34 0 62 29 62 63v375c0 34-28 63-62 63z" horiz-adv-x="1000" />

<glyph glyph-name="not-equal-to" unicode="&#xe84d;" d="M474 538l27 137c7 34 40 56 74 49 34-7 56-40 49-74l-23-112h212c34 0 62-28 62-63 0-34-28-62-62-62h-237l-25-125h262c34 0 62-28 62-63 0-34-28-62-62-62h-287l-27-138c-7-34-40-56-74-49-34 7-56 40-49 74l23 113h-211c-35 0-63 28-63 62 0 35 28 63 63 63h236l25 125h-261c-35 0-63 28-63 62 0 35 28 63 63 63h286z" horiz-adv-x="1000" />

<glyph glyph-name="numbered-list" unicode="&#xe84e;" d="M162 409h75v412h-56c-2-13-7-23-14-32-8-9-18-16-29-21-10-6-23-10-36-12-14-2-27-4-42-4v-53h102v-290z m-34-422c10 7 21 15 34 22 12 7 25 15 37 23 12 8 24 16 36 26 12 9 22 19 30 30 9 11 17 23 22 36 5 13 8 27 8 43 0 13-2 27-7 41-4 16-12 29-23 41-11 12-26 23-43 30-17 9-40 13-65 13-25 0-46-4-64-12-19-8-34-19-47-33-13-13-22-30-29-49-6-19-9-40-9-62h70c0 14 1 28 4 39 3 13 7 23 13 32 5 9 13 16 22 21 10 6 21 8 35 8 15 0 27-2 37-7 9-5 17-11 22-18 6-7 9-14 11-23 2-8 3-16 3-23-1-16-5-30-13-42-8-12-19-24-31-34-13-10-27-20-42-28-15-9-30-19-44-28-29-18-52-40-68-65-18-25-26-54-27-87h294v58h-210c3 9 8 17 16 26 8 7 17 15 28 22z m755 717h-412c-32 0-59-27-59-59v-59c0-32 27-59 59-59h412c32 0 59 27 59 59v59c0 32-26 59-59 59z m0-530h-412c-32 0-59-26-59-59v-58c0-33 27-59 59-59h412c32 0 59 26 59 59v58c0 33-26 59-59 59z" horiz-adv-x="1000" />

<glyph glyph-name="numerical" unicode="&#xe84f;" d="M174 562c-8-11-18-19-30-26-11-7-24-11-38-14-15-3-29-4-45-4v-65h109v-353h79v500h-59c-2-14-7-27-16-38z m274-332c11 9 23 18 36 26 13 10 26 19 39 28 13 10 26 21 38 32 13 12 23 24 33 37 9 13 17 28 23 44 6 16 8 34 8 53 0 16-2 33-7 50-5 18-13 34-25 49-11 15-27 28-45 38-19 9-42 14-70 14-25 0-48-5-67-14-20-10-37-23-50-40-13-17-23-37-30-60-7-23-10-48-10-75h74c1 17 2 33 5 48 3 15 7 28 13 39 6 11 14 20 24 26 10 6 22 9 37 9 16 0 29-3 39-8 10-6 18-13 23-22 6-9 10-18 12-28 1-10 3-20 3-28-1-20-5-37-14-52-9-14-20-28-33-40-14-13-29-25-45-36-16-11-31-22-46-34-32-22-56-48-74-79-17-31-26-66-27-107h312v72h-222c3 11 9 21 17 31 8 9 18 18 29 27z m531 98c-15 21-34 35-60 40v1c22 9 38 22 48 40 10 18 15 39 15 64 0 21-4 40-12 56-8 16-19 29-32 40-13 10-28 19-45 24-17 5-34 8-51 8-23 0-43-5-60-13-18-8-33-20-45-34-13-15-23-32-29-52-7-20-12-41-12-65h72c-1 12 0 24 3 36 3 12 8 23 14 32 6 9 14 17 23 23 10 5 20 8 33 8 20 0 37-7 50-19 13-13 19-29 19-49 0-15-3-27-9-37-5-10-13-18-22-24-9-6-20-10-31-12-12-2-24-3-36-2v-59c14 1 28 0 42-1 14-1 26-5 37-10 11-6 20-15 27-25 6-12 10-26 10-45 0-27-9-49-25-64-16-15-36-22-60-22-29 0-50 10-64 29-15 20-21 44-20 73h-71c0-25 3-48 10-68 7-21 16-38 30-53 13-15 28-27 48-34 19-8 42-12 67-12 21 0 41 3 60 10 19 7 36 17 50 29 15 13 26 28 35 47 8 16 12 37 12 60 0 31-7 58-21 80z" horiz-adv-x="1000" />

<glyph glyph-name="one-column" unicode="&#xe850;" d="M735 792h-177c-32 0-59-27-59-59v-824c0-32 27-58 59-58h177c32 0 59 26 59 58v824c0 32-27 59-59 59z m-353-294c-17 0-31-7-42-17l-118-118c-10-11-17-26-17-42 0-16 7-31 17-42l118-117c11-11 25-17 42-17 32 0 59 26 59 59v235c0 32-27 59-59 59z" horiz-adv-x="1000" />

<glyph glyph-name="paperclip" unicode="&#xe851;" d="M918 706c-55 55-129 82-202 82-72 0-144-27-199-82l-458-458c-39-39-59-91-59-142 0-52 19-104 59-144 39-38 91-58 143-58 52 0 104 20 144 60l457 457c47 48 47 124 0 171-47 47-124 47-172 0l-379-380c-15-16-15-41 1-56 15-16 40-16 56-1l380 380c15 16 42 16 57 1 15-16 15-42 0-58l-457-457c-47-47-128-47-173-1-47 47-45 126 1 173l458 456c78 78 209 79 286 2 78-77 78-210 0-287l-445-446c-15-16-15-40 1-55 15-15 39-15 55-1v0l446 446c55 53 82 125 82 198 0 72-27 145-82 200z" horiz-adv-x="1000" />

<glyph glyph-name="path-search" unicode="&#xe852;" d="M938-64l-250 150v153c-20-5-42-9-63-11v-142l-250-150v370c-24 19-45 41-62 66v-436l-250 150v264c34 0 62 28 62 63 0 34-28 62-62 62v289l196-118c5 21 12 41 20 60l-231 140v-1c-5 3-11 5-17 5-17 0-31-14-31-31v-750c0-11 6-21 16-26v-1l312-188v1c5-3 10-5 16-5 5 0 11 2 15 5v-1l297 179 296-179v1c6-3 11-5 17-5 17 0 31 14 31 31v237c-19-11-39-18-62-18v-164z m-813 602c0-35 28-63 63-63 34 0 62 28 62 63 0 34-28 62-62 62-35 0-63-28-63-62z m375 62c-34 0-62-28-62-62 0-35 28-63 62-63 34 0 63 28 63 63 0 34-29 62-63 62z m484 58l-74 45c11-27 18-57 23-87l5-2v-212l62-63v292c0 12-6 21-16 27z m-359 67c-34 0-62-28-62-62 0-35 28-63 62-63 34 0 63 28 63 63 0 34-29 62-63 62z m206-306c28 44 44 95 44 150 0 155-126 281-281 281-156 0-281-126-281-281 0-156 125-281 281-281 55 0 105 16 149 43l151-150c10-12 26-18 44-18 34 0 62 28 62 62 0 18-7 33-18 44l-151 150z m-237-69c-121 0-219 98-219 219 0 120 98 219 219 219 120 0 219-99 219-219 0-121-99-219-219-219z" horiz-adv-x="1000" />

<glyph glyph-name="percentage" unicode="&#xe853;" d="M375 475v125c0 69-56 125-125 125h-62c-69 0-125-56-125-125v-125c0-69 56-125 125-125h62c69 0 125 56 125 125z m-156 0c-18 0-31 14-31 31v63c0 17 13 31 31 31 17 0 31-14 31-31v-63c0-17-14-31-31-31z m594-125h-63c-69 0-125-56-125-125v-125c0-69 56-125 125-125h63c68 0 125 56 125 125v125c0 69-57 125-125 125z m0-219c0-17-14-31-32-31-17 0-31 14-31 31v63c0 17 14 31 31 31 18 0 32-14 32-31v-63z m-63 532c0 34-28 62-62 62-24 0-44-12-55-31l-374-624c-6-9-9-21-9-32 0-35 28-63 63-63 23 0 43 12 54 31l374 624c6 9 9 21 9 33z" horiz-adv-x="1000" />

<glyph glyph-name="pivot" unicode="&#xe854;" d="M286 411l-267-267c-12-11-19-26-19-44 0-34 28-62 63-62 17 0 33 6 44 18l267 267c-36 21-67 52-88 88z m652-61c-35 0-63-28-63-62v-37l-161 160c-21-36-51-67-88-88l161-160h-37c-34 0-62-29-62-63 0-34 28-62 62-62h188c34 0 62 28 62 62v188c0 34-28 62-62 62z m-250 188c0 103-84 187-188 187-104 0-187-84-187-187 0-104 83-188 187-188 104 0 188 84 188 188z m-188-63c-34 0-62 28-62 63 0 34 28 62 62 62 34 0 63-28 63-62 0-35-29-63-63-63z" horiz-adv-x="1000" />

<glyph glyph-name="plus" unicode="&#xe855;" d="M813 413h-250v250c0 34-29 62-63 62-34 0-62-28-62-62v-250h-250c-35 0-63-29-63-63 0-34 28-62 63-62h250v-250c0-35 28-63 62-63 34 0 63 28 63 63v250h250c34 0 62 28 62 62 0 34-28 63-62 63z" horiz-adv-x="1000" />

<glyph glyph-name="predictive-analysis" unicode="&#xe856;" d="M1000 449c0 64-31 122-81 156-26 120-129 205-250 205-28 0-57-5-84-15-33 36-78 55-126 55-56 0-109-27-143-72-7 0-15 1-22 1-82 0-151-56-173-136-72-25-121-95-121-176 0-24 4-48 13-70-9-22-13-46-13-69 0-70 36-132 94-165 34-35 80-54 127-54 31 0 60 7 86 22 34-40 84-65 136-65 33 0 65 9 92 27 31-25 67-41 106-46 65-72 115-165 115-165 0 0 17-31 16-31 48 0 88 10 82 65 0-1-45 145-45 145 25 13 47 34 60 61 57 32 92 96 92 163 0 15-2 30-5 44 28 33 44 76 44 120z m-77-63l-9 10-38 42c-17 18-34 58-37 86 0 0-6 63-6 64-3 36-59 36-57-7 0-2 7-63 7-63 1-19 7-39 15-59-4 1-8 2-12 2 0 0-128 6-128 7-36 1-44-61-2-63-1 0 128-7 128-7 26-1 65-19 80-36l31-34 1-3c5-13 8-27 8-41 0-46-26-88-67-110l-10-5-4-11c-10-24-30-41-55-46l-34-7 44-138c-24 39-60 90-102 134l-7 8-11 1c-25 2-50 11-71 24l85 74c22 19 52 27 62 24 0 0 39-11 39-11 39-10 51 46 14 60l-39 12c-34 10-83-12-112-37l-95-83-20-16c-22-18-47-28-75-28-40 0-77 21-98 54v95c0 25 10 50 16 53 0 0 33 22 32 22 45 33 12 77-30 56 0 0-33-22-33-22-16-9-28-28-36-48-7 7-14 12-21 17 0 0-96 63-96 64-41 28-75-32-31-56 0 1 95-63 95-63 23-15 39-49 39-68v-42c-22-12-40-18-62-18-34 0-66 14-88 39l-4 4-4 2c-41 21-66 63-66 108 0 19 5 38 13 55l7 15-7 17c-8 16-13 35-13 54 0 56 39 105 93 118l19 5 3 21c10 60 60 103 120 103 10 0 19-1 29-4l20-5 11 19c22 38 62 61 105 61 27 0 54-9 75-26l-23-23v1l-15-16c-21-17-47-27-56-25 0 0-42 6-42 7-42 8-54-54-9-64 1 0 42-7 42-7 2 0 3 0 5-1-7-23-10-48-7-70 0 0 11-62 10-62 7-32 66-22 58 12 0 0-9 62-9 62-4 23 7 58 22 74l24 25c4 3 7 6 10 9l46 47c25 11 52 17 79 17 97 0 179-70 195-167l2-15 13-8c39-22 62-62 62-106 0-23-7-44-18-63z" horiz-adv-x="1000" />

<glyph glyph-name="print" unicode="&#xe857;" d="M750 724c0 34-28 62-62 62h-375c-35 0-63-28-63-62v-63h500v63z m188-125h-875c-35 0-63-28-63-63v-375c0-34 28-62 63-62h62v187h750v-187h63c34 0 62 28 62 62v375c0 35-28 63-62 63z m-63-188h-125v63h125v-63z m-187-375h-375v188h-125v-250c0-35 28-63 62-63h500c34 0 63 28 63 63v250h-125v-188z" horiz-adv-x="1000" />

<glyph glyph-name="redo" unicode="&#xe858;" d="M750 163c-69 0-125-57-125-125 0-69 56-126 125-126 69 0 125 57 125 126 0 68-56 125-125 125z m232 419l-188 187c-11 12-26 19-44 19-34 0-62-29-62-63 0-17 6-33 18-44l81-81h-474c-173 0-313-140-313-312 0-173 140-313 313-313h250v125h-250c-104 0-188 84-188 188 0 103 84 187 188 187h474l-81-81c-12-11-18-26-18-44 0-34 28-62 62-62 18 0 33 6 44 18l188 187c11 11 18 27 18 45 0 17-7 33-18 44z" horiz-adv-x="1000" />

<glyph glyph-name="refresh" unicode="&#xe859;" d="M941 380c-33 0-59-26-59-59 0-194-158-353-353-353-104 0-198 46-262 118h85c33 0 59 26 59 59 0 32-26 59-59 59h-235c-32 0-59-27-59-59v-236c0-32 27-58 59-58 32 0 59 26 59 58v103c86-99 212-161 353-161 260 0 470 210 470 470 0 33-26 59-58 59z m0 412c-33 0-59-27-59-59v-102c-86 98-212 161-353 161-260 0-471-211-471-471 0-32 27-59 59-59 32 0 59 27 59 59 0 195 158 353 353 353 104 0 198-46 262-117h-86c-32 0-58-27-58-59 0-33 26-59 58-59h236c32 0 58 26 58 59v235c0 32-26 59-58 59z" horiz-adv-x="1000" />

<glyph glyph-name="remove" unicode="&#xe85a;" d="M687 413h-375c-34 0-62-28-62-63 0-34 28-62 62-62h375c34 0 63 28 63 62 0 35-29 63-63 63z m-187 437c-276 0-500-224-500-500 0-276 224-499 500-499 276 0 499 223 499 499 0 276-223 500-499 500z m0-875c-207 0-375 169-375 375 0 207 168 375 375 375 207 0 375-168 375-375 0-206-168-375-375-375z" horiz-adv-x="1000" />

<glyph glyph-name="repeat" unicode="&#xe85b;" d="M625 538c0-35 28-63 63-63h250c34 0 62 28 62 63v250c0 34-28 62-62 62-35 0-63-28-63-62v-109c-91 104-225 171-375 171-276 0-500-224-500-500 0-254 189-463 434-495 1 0 2-1 4-1 20-2 41-4 62-4 276 0 500 224 500 500 0 34-28 63-62 63-35 0-63-29-63-63 0-207-168-375-375-375-44 0-86 9-125 24v-1c-146 51-250 189-250 352 0 207 168 375 375 375 111 0 210-49 279-125h-91c-35 0-63-28-63-62z" horiz-adv-x="1000" />

<glyph glyph-name="reset" unicode="&#xe85c;" d="M375 538c0-35-28-63-62-63h-250c-35 0-63 28-63 63v250c0 34 28 62 63 62 34 0 62-28 62-62v-109c91 104 225 171 375 171 276 0 500-224 500-500 0-254-189-463-434-495-1 0-2-1-3-1-21-2-42-4-63-4-276 0-500 224-500 500 0 34 28 63 63 63 34 0 62-29 62-63 0-207 168-375 375-375 44 0 86 9 125 24v-1c146 51 250 189 250 352 0 207-168 375-375 375-111 0-210-49-279-125h92c34 0 62-28 62-62z" horiz-adv-x="1000" />

<glyph glyph-name="resolve" unicode="&#xe85d;" d="M413 644c-32 12-63 19-100 19-175 0-313-138-313-313 0-175 138-312 313-312 37 0 68 6 100 18-82 69-132 175-132 294 0 119 50 225 132 294z m87-44c-75-56-125-150-125-250 0-100 50-194 125-250 75 56 125 144 125 250 0 106-50 194-125 250z m188 63c-38 0-69-7-100-19 81-75 131-181 131-294 0-112-50-225-131-294 31-12 62-18 100-18 175 0 312 137 312 312 0 175-137 313-312 313z" horiz-adv-x="1000" />

<glyph glyph-name="right-join" unicode="&#xe85e;" d="M413 644c-82-69-132-175-132-294 0-119 50-225 132-294-32-12-63-18-100-18-175 0-313 137-313 312 0 175 138 313 313 313 37 0 68-7 100-19z m-123-543c-45 72-71 158-71 249 0 91 26 177 71 249-127-11-227-118-227-249 0-131 100-237 227-249z m210 499c-75-56-125-150-125-250 0-100 50-194 125-250 75 56 125 144 125 250 0 106-50 194-125 250z m188 63c175 0 312-138 312-313 0-175-137-312-312-312-38 0-69 6-100 18 81 69 131 182 131 294 0 113-50 219-131 294 31 12 62 19 100 19z" horiz-adv-x="1000" />

<glyph glyph-name="search-template" unicode="&#xe85f;" d="M974 1l-157 157c41 64 65 140 65 222 0 228-184 412-412 412-228 0-412-184-412-412 0-228 184-412 412-412 82 0 158 24 222 66l157-158c16-15 38-25 62-25 49 0 88 39 88 88 0 24-10 46-25 62z m-504 85c-162 0-294 132-294 294 0 162 132 294 294 294 162 0 294-132 294-294 0-162-132-294-294-294z m147 353h-294c-16 0-29-13-29-30 0-16 13-29 29-29h294c17 0 30 13 30 29 0 17-13 30-30 30z m0 118h-294c-16 0-29-13-29-30 0-16 13-29 29-29h294c17 0 30 13 30 29 0 17-13 30-30 30z m0-236h-294c-16 0-29-13-29-29 0-17 13-30 29-30h294c17 0 30 13 30 30 0 16-13 29-30 29z" horiz-adv-x="1000" />

<glyph glyph-name="search-text" unicode="&#xe860;" d="M563 600h-250c-35 0-63-28-63-62 0-35 28-63 63-63h62v-187c0-35 28-63 63-63 34 0 62 28 62 63v187h63c34 0 62 28 62 63 0 34-28 62-62 62z m410-590l-167 167c43 68 69 149 69 236 0 241-196 437-437 437-242 0-438-196-438-437 0-242 196-438 438-438 86 0 167 26 235 69l167-167c17-16 41-27 66-27 52 0 94 42 94 94 0 25-11 49-27 66z m-535 90c-173 0-313 140-313 313 0 172 140 312 313 312 172 0 312-140 312-312 0-173-140-313-312-313z" horiz-adv-x="1000" />

<glyph glyph-name="search" unicode="&#xe861;" d="M974 1l-157 158c41 64 65 140 65 221 0 228-184 412-412 412-228 0-412-184-412-412 0-228 184-412 412-412 82 0 158 25 221 66l158-158c16-15 38-25 62-25 49 0 88 39 88 88 0 24-10 46-25 62z m-504 85c-162 0-294 132-294 294 0 162 132 294 294 294 162 0 294-132 294-294 0-162-132-294-294-294z" horiz-adv-x="1000" />

<glyph glyph-name="select" unicode="&#xe862;" d="M1000-88c0 18-7 33-19 44l1 1-195 195 213 52-503 179c2 6 3 11 3 17v325c0 34-28 63-62 63h-250c0 34-29 62-63 62-34 0-62-28-62-62-35 0-63-29-63-63 0-34 28-62 63-62v-250c0-35 28-63 62-63h325c6 0 11 1 17 3l179-503 53 213 195-195 1 1c10-12 25-19 43-19 2 0 4 1 6 1 2 0 4-1 6-1 28 0 50 22 50 50 0 2-1 4-1 6 0 2 1 4 1 6z m-625 563h-187v188h187v-188z" horiz-adv-x="1000" />

<glyph glyph-name="selection" unicode="&#xe863;" d="M500 850c-276 0-500-224-500-500 0-276 224-500 500-500 276 0 500 224 500 500 0 276-224 500-500 500z m0-875c-207 0-375 168-375 375 0 207 168 375 375 375 207 0 375-168 375-375 0-207-168-375-375-375z m0 563c-104 0-187-84-187-188 0-104 83-187 187-187 104 0 188 83 188 187 0 104-84 188-188 188z" horiz-adv-x="1000" />

<glyph glyph-name="send-to-graph" unicode="&#xe864;" d="M375 288h-250c-34 0-62-29-62-63 0-34 28-62 62-62h99l-205-206c-12-11-19-27-19-45 0-34 28-62 63-62 17 0 33 7 44 18l206 206v-99c0-34 28-63 62-63 34 0 63 29 63 63v250c0 34-29 63-63 63z m500-32c-35 0-66-14-89-37l-133 78-91 53 224 131c23-23 54-37 89-37 69 0 125 56 125 125 0 69-56 125-125 125-69 0-125-56-125-125 0-12 2-23 5-34l-224-131v200c54 14 94 63 94 121 0 69-56 125-125 125-69 0-125-56-125-125 0-58 40-107 94-121v-200l-55 33-169 98c3 11 5 22 5 34 0 69-56 125-125 125-69 0-125-56-125-125 0-69 56-125 125-125 35 0 66 14 89 37l133-78 240-140 169-98c-4-11-6-22-6-34 0-68 56-125 125-125 69 0 125 57 125 125 0 69-56 125-125 125z" horiz-adv-x="1000" />

<glyph glyph-name="send-to-map" unicode="&#xe865;" d="M375 288h-250c-34 0-62-29-62-63 0-34 28-62 62-62h99l-205-206c-12-11-19-27-19-45 0-34 28-62 63-62 17 0 33 7 44 18l206 206v-99c0-34 28-63 62-63 34 0 63 29 63 63v250c0 34-29 63-63 63z m597 364l-281 187c-10 7-22 11-35 11-12 0-22-4-32-9l-278-167-248 165c-10 7-22 11-35 11-35 0-63-28-63-62v-375h125v258l184-123c1 0 2-1 4-2v-133h62v133c0 0 1 0 1 1l249 149v-542c0 0-1 0-1-1l-61-36v-146l91 55 249-165c10-7 21-11 35-11 34 0 62 28 62 62v688c0 22-11 41-28 52z m-97-623l-184 123c-1 1-2 1-3 2v537l188-125v-537h-1z" horiz-adv-x="1000" />

<glyph glyph-name="send-to" unicode="&#xe866;" d="M938 381c-50 0-94 25-125 63l-75-75c-25-31-69-44-113-44-87-6-156 63-156 150 0 44 19 81 44 113l81 75c-38 31-63 75-63 125 0 18 7 43 13 62-13 0-31 0-44 0-275 0-500-225-500-500 0-275 225-500 500-500 275 0 500 225 500 500 0 13 0 31 0 44-19-6-37-13-62-13z m0 469h-250c-38 0-63-31-63-62 0-32 25-63 63-63h100l-207-206c-12-13-18-25-18-44 0-31 25-62 62-62 19 0 31 6 44 18l206 207v-100c0-38 25-63 63-63 31 0 62 25 62 63v250c0 31-25 62-62 62z" horiz-adv-x="1000" />

<glyph glyph-name="share" unicode="&#xe867;" d="M705-32h-529v530h280l118 117h-457c-32 0-59-26-59-58v-648c0-32 27-58 59-58h647c33 0 59 26 59 58v456l-118-117v-280z m236 824h-294c-33 0-59-27-59-59 0-32 26-59 59-59h152l-311-311c-11-11-18-26-18-42 0-32 27-59 59-59 16 0 31 7 42 17l311 312v-153c0-32 26-59 59-59 32 0 58 27 58 59v294c0 33-26 60-58 60z" horiz-adv-x="1000" />

<glyph glyph-name="sign-1" unicode="&#xe868;" d="M641 752c9-7 16-15 21-25l50-86-149-83-48 86c-9 15-12 32-11 49 1 16 7 32 18 46 10 13 24 23 40 28 16 5 33 5 50 1 10-3 20-9 29-16z m91-149l225-402-150-83-224 402 149 83z m254-455l14-199-161 116 147 83z m-88-271c29 16 55 35 78 57-14-7-28-13-43-18-14-6-29-11-44-15-27-9-57-10-85-5-3 1-7 1-10 2-3 0-6 1-9 1-3 1-6 2-8 4-3 0-6 2-8 4-10 6-18 15-23 26-12 27-22 56-28 85-8 33-22 64-39 93-20 31-49 54-84 66-33 11-69 14-103 8-33-4-65-11-96-21-22-7-43-15-64-22-38-14-76-28-114-38-14-4-28-6-43-8-14-2-27-2-41 0-13 2-25 7-35 14-11 7-20 16-26 27-14 24-23 51-25 79-3 30-4 60-1 90-2 63 0 125 6 188-23-60-40-122-51-185-3-33-3-66 1-99 3-35 14-69 32-99 10-16 23-29 39-40 16-10 34-17 52-20 18-3 36-3 54 0 17 1 33 4 50 9 40 10 78 23 115 37 22 8 43 16 65 23 28 9 58 17 88 21 27 5 56 3 83-6 12-4 24-11 34-19 5-4 10-9 14-14l7-8c1-1 2-3 4-5 0-1 1-2 2-3 15-25 25-52 32-80 8-33 18-64 32-94 9-18 23-33 39-43 4-3 9-6 13-7 5-3 9-4 14-6 9-3 18-5 27-6 35 1 69 10 99 27z" horiz-adv-x="1000" />

<glyph glyph-name="signal-search" unicode="&#xe869;" d="M582 850c149 0 270-121 270-270 0-13-1-25-3-37 0-2 0-3 0-5-1-1-1-2-1-4-3-12-5-24-9-35v-1c-3-12-8-23-13-34l-3-5c-5-11-11-22-18-32l180-180c9-10 14-22 15-35 0-27-22-49-49-49-14 0-26 5-35 14l-180 180c-11-7-21-13-32-18l-6-3c-11-5-22-10-33-13h-1c-12-4-23-7-36-9-3-1-6-1-8-1-12-2-25-3-38-3-149 0-269 121-269 270 0 149 120 269 269 270z m-1-69c-110 0-200-89-200-200 0-110 90-199 200-199 111 0 200 89 200 199 0 111-89 200-200 200z m-407-194c18-19 19-48 1-67-108-109-108-293-1-403 18-19 18-49-1-66-18-18-47-18-66 1-143 146-143 388 0 534 19 18 49 19 67 1z m242-293c-27 16-52 35-74 58l0 0c-8-9-14-20-14-33 0-9 3-16 7-23-1-1-1-3-2-4 0-1 0-2 0-3-1-1-1-2-2-2 0-1-1-3-1-4l-94-375c-6-25 9-51 34-57 26-6 51 9 57 35l26 105h44l27-105c6-26 31-41 56-35 26 6 41 32 34 57l-93 375c-1 1-1 3-2 4 0 0-1 1-1 2l-1 4-1 1z m72-31c30-8 61-13 93-13 2 0 4 0 6 0-9-24-22-45-41-61-20-17-50-14-66 6-17 20-14 50 6 66l2 2z m257-6l-23 24c-23-11-47-19-72-24-11-52-36-100-74-140-18-18-18-48 1-66 18-18 48-18 66 1 56 57 90 130 102 205z m-492 4c-26 22-22 99-1 114 20 15 24 45 9 66-16 20-45 24-66 9-67-50-76-199-2-261 20-17 50-14 67 6 16 20 13 50-7 66z" horiz-adv-x="1000" />

<glyph glyph-name="slash" unicode="&#xe86a;" d="M625 725c-29 0-53-19-60-46l-187-622c-2-6-3-13-3-19 0-35 28-63 63-63 28 0 53 19 60 46l186 622c2 6 4 13 4 20 0 34-29 62-63 62z" horiz-adv-x="1000" />

<glyph glyph-name="small-cross-12" unicode="&#xe86b;" d="M650 217h-600c-27 0-50-23-50-50 0-28 23-50 50-50h600c28 0 50 22 50 50 0 27-22 50-50 50z m0-200h-600c-27 0-50-23-50-50 0-28 23-50 50-50h600c28 0 50 22 50 50 0 27-22 50-50 50z m-600 500h450c28 0 50 22 50 50 0 27-22 50-50 50h-450c-27 0-50-23-50-50 0-28 23-50 50-50z m600-100h-600c-27 0-50-23-50-50 0-28 23-50 50-50h600c28 0 50 22 50 50 0 27-22 50-50 50z m300 200h-100v100c0 27-22 50-50 50-27 0-50-23-50-50v-100h-100c-27 0-50-23-50-50 0-28 23-50 50-50h100v-100c0-28 23-50 50-50 28 0 50 22 50 50v100h100c28 0 50 22 50 50 0 27-22 50-50 50z" horiz-adv-x="1000" />

<glyph glyph-name="small-cross" unicode="&#xe86c;" d="M588 350l143 143c12 11 19 27 19 45 0 34-28 62-62 62-18 0-34-7-45-18l-143-144-143 144c-11 11-27 18-44 18-35 0-63-28-63-62 0-18 7-34 18-45l144-143-143-143c-12-11-19-27-19-44 0-35 28-63 63-63 17 0 33 7 44 18l143 144 143-143c11-12 27-19 45-19 34 0 62 28 62 63 0 17-7 33-18 44l-144 143z" horiz-adv-x="1000" />

<glyph glyph-name="small-minus" unicode="&#xe86d;" d="M688 413h-375c-35 0-63-29-63-63 0-34 28-62 63-62h375c34 0 62 28 62 62 0 34-28 63-62 63z" horiz-adv-x="1000" />

<glyph glyph-name="small-plus" unicode="&#xe86e;" d="M688 413h-125v125c0 34-29 62-63 62-34 0-62-28-62-62v-125h-125c-35 0-63-29-63-63 0-34 28-62 63-62h125v-125c0-35 28-63 62-63 34 0 63 28 63 63v125h125c34 0 62 28 62 62 0 34-28 63-62 63z" horiz-adv-x="1000" />

<glyph glyph-name="small-tick" unicode="&#xe86f;" d="M750 538c-17 0-33-7-44-19l-268-268-144 143c-11 12-26 19-44 19-34 0-62-29-62-63 0-17 6-33 18-44l187-188c11-11 27-18 45-18 17 0 33 7 44 18l312 313c12 11 19 27 19 44 0 34-29 63-63 63z" horiz-adv-x="1000" />

<glyph glyph-name="social-media" unicode="&#xe870;" d="M594 600c25 0 50 6 69 19 87-50 143-144 150-244 0-31 31-56 62-56 38 0 63 25 63 62 0 7 0 7 0 13-13 150-94 275-219 344-6 62-56 112-125 112-69 0-125-56-125-125 0-69 56-125 125-125z m-344-281c0 44-25 81-56 106 19 88 75 163 156 206 19 7 38 25 38 57 0 31-25 62-63 62-12 0-19 0-31-6-119-63-200-175-225-313-44-25-69-68-69-112 0-69 56-125 125-125 69 0 125 56 125 125z m550-75c-69 0-125-56-125-125 0-6 0-13 0-19-50-37-112-56-175-56-75 0-144 25-200 69-12 12-25 18-44 18-37 0-62-25-62-62 0-19 6-38 19-50 75-69 175-107 287-107 94 0 188 32 256 82 13-7 32-7 44-7 69 0 125 57 125 126 0 68-56 131-125 131z" horiz-adv-x="1000" />

<glyph glyph-name="sort-alphabetical-desc" unicode="&#xe871;" d="M374 101c-17 0-33-7-44-18l-18-19v224c0 35-28 63-63 63-34 0-62-28-62-63v-224l-18 18c-11 11-27 18-45 18-34 0-62-28-62-62 0-18 7-34 18-45l125-125c11-11 27-18 44-18 18 0 34 7 45 18l125 125c11 11 18 27 18 45 0 35-28 63-63 63z m420 124h-86l-145-374h85l30 83h143l29-83h88l-144 374z m-95-229l50 137h2l48-137h-100z m238 448h-286l278 320v86h-408v-92h257l-279-320v-87h438v93z" horiz-adv-x="1000" />

<glyph glyph-name="sort-alphabetical" unicode="&#xe872;" d="M375 100c-17 0-33-7-44-18l-18-19v225c0 34-29 62-63 62-34 0-62-28-62-62v-225l-19 18c-11 12-26 19-44 19-34 0-62-28-62-62 0-18 6-34 18-45l125-125c12-11 27-18 44-18 18 0 33 7 44 18l125 125c12 11 19 27 19 45 0 34-28 62-63 62z m496 59v65h-293v-69h184l-199-240v-65h313v69h-204l199 240z m-89 303l39-111h117l-192 498h-115l-193-498h113l40 111h191z m-95 265h1l65-183h-133l67 183z" horiz-adv-x="1000" />

<glyph glyph-name="sort-asc" unicode="&#xe873;" d="M500 413h188c34 0 62 28 62 62 0 34-28 63-62 63h-188c-34 0-62-29-62-63 0-34 28-62 62-62z m0 250h63c34 0 62 28 62 62 0 34-28 63-62 63h-63c-34 0-62-29-62-63 0-34 28-62 62-62z m0-500h313c34 0 62 28 62 62 0 34-28 63-62 63h-313c-34 0-62-29-62-63 0-34 28-62 62-62z m-187-63c-18 0-34-7-45-18l-18-19v225c0 34-28 62-62 62-35 0-63-28-63-62v-225l-18 18c-11 12-27 19-44 19-35 0-63-28-63-62 0-18 7-34 18-45l125-125c11-11 27-18 45-18 17 0 33 7 44 18l125 125c11 11 18 27 18 45 0 34-28 62-62 62z m625-62h-438c-34 0-62-29-62-63 0-34 28-63 62-63h438c34 0 62 29 62 63 0 34-28 63-62 63z" horiz-adv-x="1000" />

<glyph glyph-name="sort-desc" unicode="&#xe874;" d="M313 100c-18 0-34-7-45-18l-18-19v225c0 34-28 62-62 62-35 0-63-28-63-62v-225l-18 18c-11 12-27 19-44 19-35 0-63-28-63-62 0-18 7-34 18-45l125-125c11-11 27-18 45-18 17 0 33 7 44 18l125 125c11 11 18 27 18 45 0 34-28 62-62 62z m250-62h-63c-34 0-62-29-62-63 0-34 28-63 62-63h63c34 0 62 29 62 63 0 34-28 63-62 63z m250 500h-313c-34 0-62-29-62-63 0-34 28-62 62-62h313c34 0 62 28 62 62 0 34-28 63-62 63z m-125-250h-188c-34 0-62-29-62-63 0-34 28-62 62-62h188c34 0 62 28 62 62 0 34-28 63-62 63z m250 500h-438c-34 0-62-29-62-63 0-34 28-62 62-62h438c34 0 62 28 62 62 0 34-28 63-62 63z" horiz-adv-x="1000" />

<glyph glyph-name="sort-numerical-desc" unicode="&#xe875;" d="M375 101c-17 0-33-7-44-18l-18-19v224c0 35-29 63-63 63-34 0-62-28-62-63v-224l-19 18c-11 12-26 19-44 19-34 0-62-28-62-63 0-17 6-33 18-44l125-125c11-12 27-18 44-18 18 0 33 6 44 18l125 125c11 11 19 27 19 44 0 35-29 63-63 63z m491 590c-5 30-16 57-31 80-15 24-35 43-60 57-25 15-57 22-96 22-27 0-51-4-73-14-22-9-41-22-57-37-15-16-27-35-36-56-9-21-12-44-12-69 0-20 3-38 9-57 6-19 16-36 30-50 14-15 33-27 53-36 21-9 43-13 65-13 25 0 46 4 65 12 19 8 36 22 50 41l1-1c-1-13-3-28-6-46-4-16-9-33-16-47-8-15-17-28-29-38-12-10-28-15-47-15-18 0-33 6-45 18-12 11-20 25-23 41h-99c4-21 9-40 19-56 9-16 21-31 35-42 15-11 31-20 50-26 20-6 40-9 61-9 37 0 68 8 93 23 25 15 46 34 62 58 16 24 27 51 35 80 7 30 11 60 11 90 0 30-3 60-9 90z m-107-45c-3-10-8-20-15-28-6-9-15-15-25-20-10-5-23-7-36-7-14 0-25 2-35 8-10 5-18 12-24 20-8 9-12 19-15 29-3 11-5 22-5 34 0 11 2 22 5 32 4 10 9 20 15 28 7 8 15 15 25 20 10 5 21 7 33 7 13 0 25-2 35-7 10-5 19-12 26-20 6-9 12-18 16-29 4-10 5-22 5-32 0-13-1-24-5-35z m-28-457c-8-9-17-17-28-23-10-5-23-10-36-12-14-3-28-3-42-3v-58h103v-242h83v374h-66c-2-14-7-26-14-36z" horiz-adv-x="1000" />

<glyph glyph-name="sort-numerical" unicode="&#xe876;" d="M375 101c-17 0-33-7-44-18l-18-19v224c0 35-29 63-63 63-34 0-62-28-62-63v-224l-19 18c-11 11-26 19-44 19-34 0-62-28-62-63 0-17 6-33 18-44l125-125c11-12 27-18 44-18 18 0 33 6 44 18l125 125c12 11 19 27 19 44 0 35-29 63-63 63z m494 5c-3 22-10 42-20 60-10 17-23 32-40 43-17 10-38 16-65 16-17 0-33-4-48-11-15-6-27-16-38-28-10-12-19-25-24-42-6-16-9-33-9-51 0-15 2-29 6-44 5-14 11-26 20-37 10-11 22-21 36-27 14-7 28-10 42-10 17 0 32 3 44 9 13 7 24 17 33 32l2-2c-1-10-2-21-5-33-2-13-5-25-10-36-5-11-12-21-20-28-8-8-18-12-31-12-12 0-22 4-30 13-8 9-13 19-16 31h-65c2-15 7-30 12-42 6-13 14-23 24-31 10-9 21-15 34-20 13-4 26-6 40-6 25 0 45 6 62 17 17 11 31 25 41 44 11 18 19 38 24 60 5 23 7 45 7 67 0 23-2 45-6 68z m-71-34c-2-8-5-15-10-21-4-7-10-12-17-15-7-4-15-6-24-6-9 0-16 2-23 6-7 3-12 9-16 15-5 7-8 14-10 22-2 8-3 16-3 25 0 8 1 16 3 25 3 8 6 15 10 21 5 6 10 11 16 15 7 4 14 5 22 5 9 0 17-1 23-5 7-4 13-9 18-15 4-6 8-14 11-22 2-8 3-16 3-24 0-10-1-18-3-26z m-97 279h112v499h-89c-3-19-10-35-20-47-10-14-21-24-36-32-14-8-30-13-49-16-18-3-37-4-56-4v-76h138v-324z" horiz-adv-x="1000" />

<glyph glyph-name="sort" unicode="&#xe877;" d="M313 100c-18 0-34-7-45-18l-18-19v225c0 34-28 62-62 62-35 0-63-28-63-62v-225l-18 18c-11 12-27 19-44 19-35 0-63-28-63-62 0-18 7-34 18-45l125-125c11-11 27-18 45-18 17 0 33 7 44 18l125 125c11 11 18 27 18 45 0 34-28 62-62 62z m187 563h438c34 0 62 28 62 62 0 34-28 63-62 63h-438c-34 0-62-29-62-63 0-34 28-62 62-62z m438-125h-438c-34 0-62-29-62-63 0-34 28-62 62-62h438c34 0 62 28 62 62 0 34-28 63-62 63z m0-500h-438c-34 0-62-29-62-63 0-34 28-63 62-63h438c34 0 62 29 62 63 0 34-28 63-62 63z m0 250h-438c-34 0-62-29-62-63 0-34 28-62 62-62h438c34 0 62 28 62 62 0 34-28 63-62 63z" horiz-adv-x="1000" />

<glyph glyph-name="tag" unicode="&#xe878;" d="M63 663c0 69 56 125 125 125h286c33 0 65-14 88-37l339-338c49-49 49-128 0-177l-287-287c-49-49-128-49-177 0l-338 339c-23 23-36 55-36 88v287z m217 0c-51 0-93-42-93-93 0-52 42-94 93-94 52 0 94 42 94 94 0 51-42 93-94 93z" horiz-adv-x="1000" />

<glyph glyph-name="take-action" unicode="&#xe879;" d="M563 163c0-35 28-63 62-63 18 0 33 7 44 18l250 250c12 11 19 27 19 45 0 34-29 62-63 62-17 0-33-7-44-18l-250-250c-12-11-18-27-18-44z m-313 312c18 0 33 7 44 18l250 250c12 11 19 27 19 45 0 34-29 62-63 62-17 0-33-7-44-18l-250-250c-12-11-18-27-18-44 0-35 28-63 62-63z m250-250l313 313-50 49 31 31c12 11 19 27 19 45 0 34-29 62-63 62-17 0-33-7-44-18l-32-31-49 49-312-312 49-50-344-344c-11-11-18-27-18-44 0-34 28-63 63-63 17 0 33 7 44 19l344 343 49-49z m438-250h-500c-35 0-63-28-63-63 0-34 28-62 63-62h500c34 0 62 28 62 62 0 35-28 63-62 63z" horiz-adv-x="1000" />

<glyph glyph-name="tick-circle" unicode="&#xe87a;" d="M500-150c-276 0-500 224-500 500 0 276 224 500 500 500 276 0 500-224 500-500 0-276-224-500-500-500z m250 688c-17 0-33-7-44-19l-268-268-144 143c-11 12-26 19-44 19-34 0-62-29-62-63 0-17 6-33 18-44l187-188c11-11 27-18 45-18 17 0 33 7 44 18l312 313c12 11 19 27 19 44 0 34-29 63-63 63z" horiz-adv-x="1000" />

<glyph glyph-name="tick" unicode="&#xe87b;" d="M875 663c-17 0-33-7-44-19l-456-456-206 206c-11 12-26 19-44 19-34 0-62-29-62-63 0-17 6-33 18-44l250-250c11-12 27-18 44-18 18 0 33 6 44 18l500 500c12 11 19 27 19 44 0 34-29 63-63 63z" horiz-adv-x="1000" />

<glyph glyph-name="translate" unicode="&#xe87c;" d="M993-60l-249 500h-1c-10 21-31 35-55 35-25 0-45-14-56-35h-1l-68-137-115 86 15 11c60 46 100 118 100 200v63h62c34 0 63 28 63 62 0 34-29 63-63 63h-187c0 34-29 62-63 62h-62c-35 0-63-28-63-62h-187c-35 0-63-29-63-63 0-34 28-62 63-62h375v-63c0-41-20-78-52-101l-42-31-43 31c-31 23-51 60-51 101h-125c0-82 39-154 100-200l14-11-151-114 0-1c-15-11-25-28-25-49 0-34 28-62 62-62 14 0 26 5 37 13l1-1 181 136 162-122-124-249h1c-5-8-8-18-8-28 0-34 28-62 63-62 24 0 45 14 55 35h1l45 90h297l45-91h1c11-20 31-34 56-34 34 0 62 28 62 62 0 10-3 20-7 28z m-392 160l87 173 86-173h-173z" horiz-adv-x="1000" />

<glyph glyph-name="trash" unicode="&#xe87d;" d="M882 557h-765c-16 0-29-13-29-30 0-16 13-29 29-29h30v-589c0-32 26-58 58-58h589c32 0 58 26 58 58v589h30c16 0 29 13 29 29 0 17-13 30-29 30z m-500-530c0-32-27-59-59-59-32 0-59 27-59 59v353c0 32 27 59 59 59 32 0 59-27 59-59v-353z m176 0c0-32-26-59-59-59-32 0-58 27-58 59v353c0 32 26 59 58 59 33 0 59-27 59-59v-353z m177 0c0-32-27-59-59-59-32 0-59 27-59 59v353c0 32 27 59 59 59 32 0 59-27 59-59v-353z m117 706h-235c0 32-26 59-59 59h-117c-33 0-59-27-59-59h-235c-33 0-59-26-59-59v-59h823v59c0 33-26 59-59 59z" horiz-adv-x="1000" />

<glyph glyph-name="truck" unicode="&#xe87e;" d="M821 850c20 0 36-14 36-31v-531c40 0 72-28 72-63v-125h35c20 0 36-14 36-31v-63c0-17-16-31-36-31h-107v-63c0-34-32-62-71-62-40 0-72 28-72 62v63h-428v-63c0-34-32-62-72-62-39 0-71 28-71 62v63h-107c-20 0-36 14-36 31v63c0 17 16 31 36 31h35v125c0 35 32 63 72 63v531c0 17 16 31 36 31 19 0 35-14 35-31v-156c0 69 64 125 143 125h286c79 0 143-56 143-125v156c0 17 16 31 35 31z m-250-500h-142c-40 0-72-28-72-62v-125c0-35 32-63 72-63h142c40 0 72 28 72 63v125c0 34-32 62-72 62z m250-187h-71c-20 0-36-14-36-32 0-17 16-31 36-31h71c20 0 36 14 36 31 0 18-16 32-36 32z m-571 0h-71c-20 0-36-14-36-32 0-17 16-31 36-31h71c20 0 36 14 36 31 0 18-16 32-36 32z m321 125c20 0 36-14 36-32v-62l0-6c-3-14-18-25-36-25h-142l-7 0c-16 3-29 15-29 31v62l0 6c4 14 18 26 36 26h142z m143 312h-428v-125h428v125z" horiz-adv-x="1000" />

<glyph glyph-name="two-columns" unicode="&#xe87f;" d="M294 792h-177c-32 0-59-27-59-59v-824c0-32 27-58 59-58h177c32 0 58 26 58 58v824c0 32-26 59-58 59z m688-430l-117 118c-11 11-26 17-42 17-32 0-59-26-59-59v-235c0-32 27-59 59-59 16 0 31 7 42 17l117 118c11 10 17 25 17 42 0 16-6 31-17 41z m-335 430h-177c-32 0-59-27-59-59v-824c0-32 27-58 59-58h177c32 0 58 26 58 58v824c0 32-26 59-58 59z" horiz-adv-x="1000" />

<glyph glyph-name="unarchive" unicode="&#xe880;" d="M836 850c24 0 46-13 56-34l108-216v-688c0-34-28-62-62-62h-875c-35 0-63 28-63 62v688l108 216c10 21 32 34 56 34h672z m-336-375c-17 0-33-7-44-18l-125-125-6-6c-8-11-12-24-12-38 0-35 28-63 62-63 18 0 33 7 44 18l19 19v-162l0-7c4-31 30-55 62-55 34 0 63 28 63 62v162l18-18 5-5c10-9 24-14 39-14 34 0 63 28 63 63 0 17-7 33-19 44l-125 125-6 5c-10 8-23 13-38 13z m313 250h-625l-63-125h750l-62 125z" horiz-adv-x="1000" />

<glyph glyph-name="undo" unicode="&#xe881;" d="M250 163c-69 0-125-57-125-125 0-69 56-126 125-126 69 0 125 57 125 126 0 68-56 125-125 125z m438 437h-475l81 81c12 11 19 27 19 44 0 34-29 63-63 63-17 0-33-7-44-19l-188-187c-11-11-18-27-18-44 0-18 7-34 18-45l188-187c11-12 27-18 44-18 34 0 63 28 63 62 0 18-7 33-19 44l-81 81h475c103 0 187-84 187-187 0-104-84-188-187-188h-250v-125h250c172 0 312 140 312 313 0 172-140 312-312 312z" horiz-adv-x="1000" />

<glyph glyph-name="ungroup-objects" unicode="&#xe882;" d="M219 538c-121 0-219-99-219-219 0-121 98-219 219-219 120 0 219 98 219 219 0 120-99 219-219 219z m562 0c-120 0-218-99-218-219 0-121 98-219 218-219 121 0 219 98 219 219 0 120-98 219-219 219z" horiz-adv-x="1000" />

<glyph glyph-name="unlock" unicode="&#xe883;" d="M764 792c-130 0-235-105-235-235v-177h-412c-32 0-59-26-59-59v-412c0-32 27-58 59-58h706c32 0 59 26 59 58v412c0 33-27 59-59 59h-176v177c0 64 52 117 117 117 65 0 118-53 118-117v-59c0-33 26-59 59-59 32 0 58 26 58 59v59c0 130-105 235-235 235z" horiz-adv-x="1000" />

<glyph glyph-name="unpin" unicode="&#xe884;" d="M587 788c-31-32-25-93 9-159l-322-250c-96 65-179 92-211 59l218-219c-1-1-87-175-87-175l175 88 219-219c33 33 6 116-60 211l251 323c65-34 126-41 157-9l-349 350z" horiz-adv-x="1000" />

<glyph glyph-name="unresolve" unicode="&#xe885;" d="M688 663c-35 0-67-6-99-17 80-73 130-179 130-296 0-117-50-222-130-296 32-11 64-16 99-16 172 0 312 140 312 312 0 173-140 313-312 313z m-77-399c2 5 4 11 6 17 5 22 8 45 8 69 0 24-3 47-8 69-2 6-4 12-6 17-5 17-10 34-18 50-2 4-5 8-7 13-9 17-20 32-32 47-1 2-3 5-5 7-15 16-31 32-49 46-27 20-57 36-91 47l1 0c-6 2-12 3-19 5-7 2-14 5-22 6-18 3-37 6-56 6-173 0-313-140-313-313 0-172 140-312 313-312 19 0 38 2 56 5 7 1 15 4 22 6 7 2 13 2 19 5l-1 0c55 19 103 50 139 94 2 1 4 4 6 6 12 15 22 30 32 47 2 5 5 9 7 13 8 16 14 33 18 50z" horiz-adv-x="1000" />

<glyph glyph-name="upload" unicode="&#xe886;" d="M500 850c-276 0-500-224-500-500 0-276 224-500 500-500 276 0 500 224 500 500 0 276-224 500-500 500z m188-500c-18 0-34 7-45 18l-80 81v-349c0-34-29-62-63-62-34 0-62 28-62 62v349l-81-81c-11-11-27-18-44-18-35 0-63 28-63 63 0 17 7 33 18 44l188 187c11 12 27 19 44 19 18 0 33-7 44-19l188-187c11-11 18-27 18-44 0-35-28-63-62-63z" horiz-adv-x="1000" />

<glyph glyph-name="uploading-small" unicode="&#xe887;" d="M500 850c150 0 284-67 375-171 0 0 31-48 0-79-31-31-96 0-96 0-69 76-168 125-279 125-207 0-375-168-375-375 0-163 104-301 250-352v1c39-15 81-24 125-24 207 0 375 168 375 375 0 34 28 63 63 63 34 0 62-29 62-63 0-276-224-500-500-500-21 0-42 2-62 4-2 0-3 1-4 1-245 32-434 241-434 495 0 276 224 500 500 500z" horiz-adv-x="1000" />

<glyph glyph-name="volume" unicode="&#xe888;" d="M42 850l20-55 72-208c6-18 11-49 11-74v-500c0-90 75-163 166-163h350c92 0 167 73 167 163v754c71 0 128-56 128-125v-375h86v375c0 114-97 208-214 208h-43-683-60z m119-83h582v-125h-171v-84h171v-83h-86v-83h86v-84h-171v-83h171v-83h-86v-84h86v-45c0-44-37-80-82-80h-350c-45 0-81 36-81 80v500c0 33-4 68-15 100l-54 154z" horiz-adv-x="1083" />

<glyph glyph-name="weight" unicode="&#xe889;" d="M218-39h723l-86 556h-551l-86-556z m362 667c17 0 31 5 43 16 11 10 17 24 17 39 0 16-6 29-17 40-12 11-26 16-43 16-17 0-32-5-43-16-12-11-18-24-18-40 0-15 6-29 18-39 11-11 26-16 43-16z m-500-778l120 778h209c-3 9-5 18-7 27-2 9-3 18-3 28 0 47 17 86 53 118 35 33 77 49 128 49 50 0 92-16 128-49 35-32 52-71 52-118 0-10-1-19-3-28-2-9-4-18-7-27h209l121-778h-1000z" horiz-adv-x="1083" />

<glyph glyph-name="zoom-in" unicode="&#xe88a;" d="M529 439v118c0 32-27 58-59 58-32 0-59-26-59-58v-118h-117c-33 0-59-27-59-59 0-32 26-59 59-59h117v-117c0-33 27-59 59-59 32 0 59 26 59 59v117h118c32 0 58 27 58 59 0 32-26 59-58 59h-118z m445-438l-157 158c41 64 65 140 65 221 0 228-184 412-412 412-228 0-412-184-412-412 0-228 184-412 412-412 82 0 158 25 221 66l158-158c16-15 38-25 62-25 49 0 88 39 88 88 0 24-10 46-25 62z m-504 85c-162 0-294 132-294 294 0 162 132 294 294 294 162 0 294-132 294-294 0-162-132-294-294-294z" horiz-adv-x="1000" />

<glyph glyph-name="zoom-out" unicode="&#xe88b;" d="M294 439c-33 0-59-27-59-59 0-32 26-59 59-59h353c32 0 58 27 58 59 0 32-26 59-58 59h-353z m680-438l-157 158c41 64 65 140 65 221 0 228-184 412-412 412-228 0-412-184-412-412 0-228 184-412 412-412 82 0 158 25 221 66l158-158c16-15 38-25 62-25 49 0 88 39 88 88 0 24-10 46-25 62z m-504 85c-162 0-294 132-294 294 0 162 132 294 294 294 162 0 294-132 294-294 0-162-132-294-294-294z" horiz-adv-x="1000" />

<glyph glyph-name="zoom-to-fit" unicode="&#xe88c;" d="M688 225c0-34 28-62 62-62 18 0 33 6 44 18l125 125c12 11 19 27 19 44 0 18-7 33-19 44l-125 125c-11 12-26 19-44 19-34 0-62-29-62-63 0-17 6-33 18-44l81-81-81-81c-12-11-18-26-18-44z m-625 313c34 0 62 28 62 62v125h125c34 0 63 28 63 63 0 34-29 62-63 62h-187c-35 0-63-28-63-62v-188c0-34 28-62 63-62z m250-63c0 34-29 63-63 63-17 0-33-7-44-19l-125-125c-12-11-18-26-18-44 0-17 6-33 18-44l125-125c11-12 27-18 44-18 34 0 63 28 63 62 0 18-7 33-19 44l-81 81 81 81c12 11 19 27 19 44z m62 63c18 0 33 6 44 18l81 81 81-81c11-12 27-18 44-18 34 0 63 28 63 62 0 18-7 33-19 44l-125 125c-11 12-26 19-44 19-17 0-33-7-44-19l-125-125c-12-11-18-26-18-44 0-34 28-62 62-62z m563-375c-35 0-63-29-63-63v-125h-125c-34 0-62-28-62-63 0-34 28-62 62-62h188c34 0 62 28 62 62v188c0 34-28 63-62 63z m0 687h-188c-34 0-62-28-62-62 0-35 28-63 62-63h125v-125c0-34 28-62 63-62 34 0 62 28 62 62v188c0 34-28 62-62 62z m-688-875h-125v125c0 34-28 63-62 63-35 0-63-29-63-63v-188c0-34 28-62 63-62h187c34 0 63 28 63 62 0 35-29 63-63 63z m375 188c-17 0-33-7-44-19l-81-81-81 81c-11 12-26 19-44 19-34 0-62-29-62-63 0-17 6-33 18-44l125-125c11-12 27-19 44-19 18 0 33 7 44 19l125 125c12 11 19 27 19 44 0 34-29 63-63 63z" horiz-adv-x="1000" />

<glyph glyph-name="airplane" unicode="&#xe88d;" d="M1000 756c0 52-42 94-94 94-25 0-49-11-66-27l-221-221-494 186-62-125 370-247-190-191h-180l-63-62 188-125 125-188 62 62v181l191 190 247-371 125 63-186 494 221 221c16 17 27 41 27 66z" horiz-adv-x="1000" />

<glyph glyph-name="application" unicode="&#xe88e;" d="M219 413h437c18 0 32 13 32 31 0 17-14 31-32 31h-437c-18 0-31-14-31-31 0-18 13-31 31-31z m719 375h-875c-35 0-63-29-63-63v-750c0-34 28-63 63-63h875c34 0 62 29 62 63v750c0 34-28 63-62 63z m-63-750h-750v500h750v-500z m-656 250h250c17 0 31 13 31 31 0 17-14 31-31 31h-250c-18 0-31-14-31-31 0-18 13-31 31-31z m0-125h312c18 0 32 13 32 31 0 17-14 31-32 31h-312c-18 0-31-14-31-31 0-18 13-31 31-31z" horiz-adv-x="1000" />

<glyph glyph-name="applications" unicode="&#xe88f;" d="M219 163h125c17 0 31 13 31 31 0 17-14 31-31 31h-125c-18 0-31-14-31-31 0-18 13-31 31-31z m0 125h312c18 0 32 13 32 31 0 17-14 31-32 31h-312c-18 0-31-14-31-31 0-18 13-31 31-31z m469 312h-625c-35 0-63-28-63-62v-626c0-34 28-62 63-62h625c34 0 62 28 62 62v626c0 34-28 62-62 62z m-63-625h-500v438h500v-438z m313 875h-625c-35 0-63-28-63-62v-125h125v62h500v-437h-62v-125h125c34 0 62 28 62 62v563c0 34-28 62-62 62z m-719-812h187c18 0 32 13 32 31 0 17-14 31-32 31h-187c-18 0-31-14-31-31 0-18 13-31 31-31z" horiz-adv-x="1000" />

<glyph glyph-name="arrow-bottom-left" unicode="&#xe890;" d="M875 663c0 34-28 62-62 62-18 0-34-7-45-18l-518-519v287c0 34-28 63-62 63-35 0-63-29-63-63v-437c0-35 28-63 63-63h437c34 0 63 28 63 63 0 34-29 62-63 62h-287l518 518c12 11 19 27 19 45z" horiz-adv-x="1000" />

<glyph glyph-name="arrow-bottom-right" unicode="&#xe891;" d="M813 538c-35 0-63-29-63-63v-287l-518 519c-11 11-27 18-44 18-35 0-63-28-63-62 0-18 7-34 18-45l519-518h-287c-34 0-62-28-62-62 0-35 28-63 62-63h438c34 0 62 28 62 63v437c0 34-28 63-62 63z" horiz-adv-x="1000" />

<glyph glyph-name="arrow-down" unicode="&#xe892;" d="M813 350c-19 0-32-6-44-19l-206-206v600c0 31-25 63-63 63-37 0-62-32-62-63v-600l-207 206c-12 13-25 19-43 19-32 0-63-31-63-62 0-19 6-32 19-44l312-313c13-12 25-19 44-19 19 0 31 7 44 19l312 313c13 12 19 25 19 44 0 37-25 62-62 62z" horiz-adv-x="1000" />

<glyph glyph-name="arrow-left" unicode="&#xe893;" d="M874 413h-598l205 206c12 11 18 27 18 44 0 35-28 63-62 63-18 0-33-7-44-18l-313-313c-11-12-18-27-18-44 0-17 7-33 18-45l313-312c11-12 26-18 44-18 34 0 62 28 62 62 0 18-6 33-18 45l-205 205h599c34 0 63 28 63 63 0 34-29 62-64 62z" horiz-adv-x="1000" />

<glyph glyph-name="arrow-right" unicode="&#xe894;" d="M919 394l-313 313c-11 12-27 19-44 19-34 0-63-28-63-63 0-17 7-33 19-44l205-206h-599c-34 0-62-28-62-62 0-35 28-63 62-63h600l-206-205c-11-12-18-27-18-45 0-34 28-62 63-62 17 0 33 6 44 18l312 312c12 12 19 27 19 45 0 17-8 32-19 43z" horiz-adv-x="1000" />

<glyph glyph-name="arrow-top-right" unicode="&#xe895;" d="M813 725h-438c-34 0-62-28-62-62 0-35 28-63 62-63h287l-518-518c-12-11-19-27-19-44 0-35 28-63 63-63 17 0 33 7 44 18l518 519v-287c0-34 28-62 63-62 34 0 62 28 62 62v438c0 34-28 62-62 62z" horiz-adv-x="1000" />

<glyph glyph-name="arrow-up" unicode="&#xe896;" d="M856 456l-312 313c-13 12-25 19-44 19-19 0-31-7-44-19l-312-313c-13-12-19-25-19-43 0-38 31-63 63-63 18 0 31 6 43 19l207 206v-600c0-38 25-63 62-63 38 0 63 25 63 63v600l206-206c12-13 25-19 44-19 37 0 62 25 62 63 0 18-6 31-19 43z" horiz-adv-x="1000" />

<glyph glyph-name="arrow-top-left" unicode="&#xe897;" d="M857 82l-519 518h287c34 0 63 28 63 63 0 34-29 62-63 62h-437c-35 0-63-28-63-62v-438c0-34 28-62 63-62 34 0 62 28 62 62v287l518-518c11-12 27-19 45-19 34 0 62 28 62 63 0 17-7 33-18 44z" horiz-adv-x="1000" />

<glyph glyph-name="arrows-horizontal" unicode="&#xe898;" d="M981 394l-250 250c-12 12-25 19-43 19-38 0-63-32-63-63 0-19 6-31 19-44l144-143h-575l143 143c13 13 19 25 19 44 0 31-25 63-62 63-19 0-32-7-44-19l-250-250c-13-13-19-25-19-44 0-19 6-31 19-44l250-250c12-12 25-18 44-18 37 0 62 25 62 62 0 19-6 31-19 44l-143 144h575l-144-144c-13-13-19-25-19-44 0-37 25-62 63-62 18 0 31 6 43 18l250 250c13 13 19 25 19 44 0 19-6 31-19 44z" horiz-adv-x="1000" />

<glyph glyph-name="arrows-vertical" unicode="&#xe899;" d="M750 225c-19 0-31-6-44-19l-143-143v575l143-144c13-13 25-19 44-19 38 0 63 25 63 63 0 18-7 31-19 43l-250 250c-13 13-25 19-44 19-19 0-31-6-44-19l-250-250c-12-12-18-25-18-43 0-38 31-63 62-63 19 0 31 6 44 19l144 144v-575l-144 143c-13 13-25 19-44 19-31 0-62-25-62-62 0-19 6-32 18-44l250-250c13-13 25-19 44-19 19 0 31 6 44 19l250 250c12 12 19 25 19 44 0 37-25 62-63 62z" horiz-adv-x="1000" />

<glyph glyph-name="blocked-person" unicode="&#xe89a;" d="M587 57c-75 33-65 53-68 81 0 4 0 8-1 12 26 23 47 54 61 90 0 0 0 2 0 3 4 8 6 16 9 24 16 4 26 22 31 39 0 2 2 5 3 8-111 49-188 159-188 286 0 20 2 39 5 58-10 1-21 5-31 5-41 0-86-13-118-37-31-24-54-58-66-95-2-8-4-17-5-25-6-30-9-77-9-109 0-1 0-3 0-4-12-5-22-17-25-42-2-20 6-37 10-44 4-18 14-37 32-40 2-9 5-17 8-24 0-1 1-2 1-2v0c13-37 35-69 62-92 0-3-1-7-1-10-3-28 5-48-70-81-75-33-188-69-211-122-24-55-14-86-14-86h810c0 0 9 31-14 85-23 53-136 89-211 122z m161 793c-139 0-252-112-252-250 0-138 113-250 252-250 140 0 252 112 252 250 0 138-112 250-252 250z m-125-250c0 69 56 125 125 125 23 0 45-7 64-17l-172-171c-11 19-17 40-17 63z m125-125c-23 0-45 7-64 18l172 170c12-19 18-40 18-63 0-69-56-125-126-125z" horiz-adv-x="1000" />

<glyph glyph-name="calendar" unicode="&#xe89b;" d="M688 663c37 0 62 31 62 62v63c0 37-25 62-62 62-38 0-63-25-63-62v-63c0-31 25-62 63-62z m187 125h-62v-63c0-69-57-125-125-125-69 0-125 56-125 125v63h-188v-63c0-69-56-125-125-125-69 0-125 56-125 125v63h-62c-38 0-63-32-63-63v-750c0-38 25-63 63-63h812c38 0 63 25 63 63v750c0 38-32 63-63 63z m-562-750h-188v187h188v-187z m0 250h-188v187h188v-187z m250-250h-188v187h188v-187z m0 250h-188v187h188v-187z m250-250h-188v187h188v-187z m0 250h-188v187h188v-187z m-563 375c38 0 63 31 63 62v63c0 37-25 62-63 62-37 0-62-25-62-62v-63c0-31 25-62 62-62z" horiz-adv-x="1000" />

<glyph glyph-name="caret-down" unicode="&#xe89c;" d="M750 444c0 17-14 31-31 31h-438c-17 0-31-14-31-31 0-8 3-15 8-21l219-250c6-6 14-10 23-10 9 0 18 4 23 10l219 250c5 6 8 13 8 21z" horiz-adv-x="1000" />

<glyph glyph-name="caret-left" unicode="&#xe89d;" d="M594 600c-8 0-15-3-21-8l-250-219c-6-5-10-14-10-23 0-9 4-17 10-23l250-219c6-5 13-8 21-8 17 0 31 14 31 31v438c0 17-14 31-31 31z" horiz-adv-x="1000" />

<glyph glyph-name="caret-right" unicode="&#xe89e;" d="M688 350c0 9-5 18-11 23l-250 219c-6 5-13 8-21 8-17 0-31-14-31-31v-438c0-17 14-31 31-31 8 0 15 3 21 8l250 219c6 6 11 14 11 23z" horiz-adv-x="1000" />

<glyph glyph-name="caret-up" unicode="&#xe89f;" d="M742 277c0 0 1 0 0 0l-219 250c-5 6-14 11-23 11-9 0-17-5-23-11l-219-250c-5-6-8-13-8-21 0-17 14-31 31-31h438c17 0 31 14 31 31 0 8-3 15-8 21z" horiz-adv-x="1000" />

<glyph glyph-name="chevron-backward" unicode="&#xe8a0;" d="M463 350l206 206c12 11 19 27 19 44 0 34-29 63-63 63-17 0-33-7-44-19l-206-206v162c0 34-28 63-62 63-35 0-63-29-63-63v-500c0-34 28-62 63-62 34 0 62 28 62 62v162l206-206c11-12 27-18 44-18 34 0 63 28 63 62 0 18-7 33-19 44l-206 206z" horiz-adv-x="1000" />

<glyph glyph-name="chevron-down" unicode="&#xe8a1;" d="M750 538c-17 0-33-7-44-19l-206-206-206 206c-11 12-26 19-44 19-34 0-62-29-62-63 0-17 6-33 18-44l250-250c11-12 27-18 44-18 18 0 33 6 44 18l250 250c12 11 19 27 19 44 0 34-29 63-63 63z" horiz-adv-x="1000" />

<glyph glyph-name="chevron-forward" unicode="&#xe8a2;" d="M625 663c-34 0-62-29-62-63v-162l-206 206c-11 12-27 19-44 19-35 0-63-29-63-63 0-17 7-33 18-44l206-206-205-206c-12-11-19-26-19-44 0-34 28-62 63-62 17 0 33 6 44 18l206 206v-162c0-34 28-62 62-62 34 0 63 28 63 62v500c0 34-29 63-63 63z" horiz-adv-x="1000" />

<glyph glyph-name="chevron-left" unicode="&#xe8a3;" d="M463 350l206 206c12 11 19 27 19 44 0 34-29 63-63 63-17 0-33-7-44-19l-250-250c-12-11-18-26-18-44 0-17 6-33 18-44l250-250c11-12 27-18 44-18 34 0 63 28 63 62 0 18-7 33-19 44l-206 206z" horiz-adv-x="1000" />

<glyph glyph-name="chevron-right" unicode="&#xe8a4;" d="M669 394l-250 250c-11 12-26 19-44 19-34 0-62-29-62-63 0-17 6-33 18-44l206-206-206-206c-12-11-18-26-18-44 0-34 28-62 62-62 18 0 33 6 44 18l250 250c12 11 19 27 19 44 0 18-7 33-19 44z" horiz-adv-x="1000" />

<glyph glyph-name="chevron-up" unicode="&#xe8a5;" d="M794 269l-250 250c-11 12-26 19-44 19-17 0-33-7-44-19l-250-250c-12-11-18-26-18-44 0-34 28-62 62-62 18 0 33 6 44 18l206 206 206-206c11-12 27-18 44-18 34 0 63 28 63 62 0 18-7 33-19 44z" horiz-adv-x="1000" />

<glyph glyph-name="circle-arrow-down" unicode="&#xe8a6;" d="M688 413c-18 0-34-7-45-19l-80-81v225c0 34-29 62-63 62-34 0-62-28-62-62v-225l-81 81c-11 12-27 19-44 19-35 0-63-29-63-63 0-17 7-33 18-44l188-188c11-11 27-18 44-18 18 0 33 7 44 18l188 188c11 11 18 27 18 44 0 34-28 63-62 63z m-188 437c-276 0-500-224-500-500 0-276 224-500 500-500 276 0 500 224 500 500 0 276-224 500-500 500z m0-875c-207 0-375 168-375 375 0 207 168 375 375 375 207 0 375-168 375-375 0-207-168-375-375-375z" horiz-adv-x="1000" />

<glyph glyph-name="circle-arrow-left" unicode="&#xe8a7;" d="M688 413h-225l81 80c12 11 19 27 19 45 0 34-29 62-63 62-17 0-33-7-44-18l-188-188c-11-11-18-26-18-44 0-17 7-33 18-44l188-188c11-11 27-18 44-18 34 0 63 28 63 63 0 17-7 33-19 44l-81 81h225c34 0 62 28 62 62 0 34-28 63-62 63z m-188 437c-276 0-500-224-500-500 0-276 224-500 500-500 276 0 500 224 500 500 0 276-224 500-500 500z m0-875c-207 0-375 168-375 375 0 207 168 375 375 375 207 0 375-168 375-375 0-207-168-375-375-375z" horiz-adv-x="1000" />

<glyph glyph-name="circle-arrow-right" unicode="&#xe8a8;" d="M544 582c-11 11-26 18-44 18-34 0-62-28-62-62 0-18 6-34 18-45l81-80h-224c-35 0-63-29-63-63 0-34 28-62 63-62h224l-81-81c-12-11-18-27-18-44 0-35 28-63 62-63 18 0 33 7 44 18l188 188c11 11 18 27 18 44 0 18-7 33-18 44l-188 188z m-44 268c-276 0-500-224-500-500 0-276 224-500 500-500 276 0 500 224 500 500 0 276-224 500-500 500z m0-875c-207 0-375 168-375 375 0 207 168 375 375 375 207 0 375-168 375-375 0-207-168-375-375-375z" horiz-adv-x="1000" />

<glyph glyph-name="circle-arrow-up" unicode="&#xe8a9;" d="M544 582c-11 11-26 18-44 18-17 0-33-7-44-18l-188-188c-11-11-18-26-18-44 0-34 28-62 63-62 17 0 33 6 44 18l81 81v-224c0-35 28-63 62-63 34 0 63 28 63 63v224l80-81c11-12 27-18 45-18 34 0 62 28 62 62 0 18-7 33-18 44l-188 188z m-44 268c-276 0-500-224-500-500 0-276 224-500 500-500 276 0 500 224 500 500 0 276-224 500-500 500z m0-875c-207 0-375 168-375 375 0 207 168 375 375 375 207 0 375-168 375-375 0-207-168-375-375-375z" horiz-adv-x="1000" />

<glyph glyph-name="cog" unicode="&#xe8aa;" d="M952 415h-108c-7 22-16 42-27 62l80 80c18 18 18 48 0 66l-66 66c-19 19-49 19-67 0l-80-80c-19 10-39 20-61 26v110c0 26-21 47-47 47h-94c-26 0-47-21-47-47v-110c-23-7-44-16-65-27l-76 76c-18 18-47 18-65 0l-63-64c-18-18-18-46 0-64l76-77c-11-20-21-41-28-64h-109c-26 0-47-21-47-47v-94c0-26 21-47 47-47h109c7-22 16-42 27-61l-80-80c-19-18-19-48 0-67l66-66c18-18 48-18 67 0l80 80c19-11 39-19 61-26v-109c0-26 21-47 47-47h94c26 0 47 21 47 47v109c23 7 44 17 65 28l76-77c18-17 47-17 64 0l64 64c18 18 18 47 0 65l-76 76c11 21 21 42 28 65h109c26 0 47 21 47 47v94c-1 25-22 46-48 46z m-423-270c-98 0-177 79-177 176 0 98 79 177 177 177 98 0 176-79 176-177 0-97-78-176-176-176z" horiz-adv-x="1000" />

<glyph glyph-name="collapse-all" unicode="&#xe8ab;" d="M456 431c11-12 27-18 44-18 18 0 33 6 44 18l250 250c12 11 19 27 19 44 0 34-29 63-63 63-17 0-33-7-44-19l-206-206-206 206c-11 12-26 19-44 19-34 0-62-29-62-63 0-17 6-33 18-44l250-250z m88-162c-11 12-26 19-44 19-17 0-33-7-44-19l-250-250c-12-11-18-27-18-44 0-34 28-63 62-63 18 0 33 7 44 19l206 206 206-206c11-12 27-19 44-19 34 0 63 29 63 63 0 17-7 33-19 44l-250 250z" horiz-adv-x="1000" />

<glyph glyph-name="compass" unicode="&#xe8ac;" d="M750 350c0-9-2-17-5-24l-187-437c-10-23-32-39-58-39-26 0-48 16-57 38l-188 437c-3 8-5 16-5 25 0 9 2 17 5 24l188 437c9 23 31 39 57 39 26 0 48-16 58-38l187-437c3-8 5-16 5-25z m-250 279l-119-279h238l-119 279z" horiz-adv-x="1000" />

<glyph glyph-name="console" unicode="&#xe8ad;" d="M938-88h-875c-35 0-63 29-63 63v750c0 34 28 63 63 63h875c34 0 62-29 62-63v-750c0-34-28-63-62-63z m-63 626h-750v-500h750v500z m-625-63c18 0 33-7 44-18l125-125c12-11 19-27 19-44 0-18-7-34-19-45l-125-125c-11-11-26-18-44-18-34 0-62 28-62 63 0 17 6 33 18 44l81 81-81 80c-12 11-18 27-18 45 0 34 28 62 62 62z m313-250h187c34 0 63-28 63-62 0-35-29-63-63-63h-187c-35 0-63 28-63 63 0 34 28 62 63 62z" horiz-adv-x="1000" />

<glyph glyph-name="control" unicode="&#xe8ae;" d="M813 350h-313v-312h313v312z m0 313h-313v-250h313v250z m125 187h-875c-35 0-63-28-63-62v-876c0-34 28-62 63-62h875c34 0 62 28 62 62v876c0 34-28 62-62 62z m-63-875h-750v750h750v-750z m-437 688h-250v-625h250v625z" horiz-adv-x="1000" />

<glyph glyph-name="dashboard" unicode="&#xe8af;" d="M313 600c-35 0-63-28-63-62 0-35 28-63 63-63 34 0 62 28 62 63 0 34-28 62-62 62z m-63-187c-34 0-62-29-62-63 0-34 28-62 62-62 34 0 63 28 63 62 0 34-29 63-63 63z m250 125c34 0 63 28 63 62 0 34-29 63-63 63-34 0-62-29-62-63 0-34 28-62 62-62z m-125-375c0-69 56-125 125-125 69 0 125 56 125 125 0 33-125 312-125 312 0 0-125-279-125-312z m125 687c-276 0-500-224-500-500 0-276 224-500 500-500 276 0 500 224 500 500 0 276-224 500-500 500z m0-875c-207 0-375 168-375 375 0 207 168 375 375 375 207 0 375-168 375-375 0-207-168-375-375-375z m250 563c0 34-28 62-62 62-35 0-63-28-63-62 0-35 28-63 63-63 34 0 62 28 62 63z m0-125c-34 0-62-29-62-63 0-34 28-62 62-62 34 0 63 28 63 62 0 34-29 63-63 63z" horiz-adv-x="1000" />

<glyph glyph-name="data-lineage" unicode="&#xe8b0;" d="M67 850c-37 0-67-30-67-67v-133c0-37 30-67 67-67l140 0c21-103 89-188 181-233-92-45-160-130-181-233l-140 0c-37 0-67-30-67-67v-133c0-37 30-67 67-67h333c37 0 67 30 67 67v133c0 37-30 67-67 67l-125 0c29 111 127 194 245 199l13 1v-67c0-37 30-67 67-67h333c37 0 67 30 67 67v200c0 37-30 67-67 67h-333c-37 0-67-30-67-67v-67c-124 0-228 85-258 200l125 0c37 0 67 30 67 67v133c0 37-30 67-67 67h-333z" horiz-adv-x="1000" />

<glyph glyph-name="direction-left" unicode="&#xe8b1;" d="M1000 726l-1000-375 1000-375-250 375 250 375z" horiz-adv-x="1000" />

<glyph glyph-name="direction-right" unicode="&#xe8b2;" d="M1000 351l-1000 375 250-375-250-375 1000 375z" horiz-adv-x="1000" />

<glyph glyph-name="double-caret-horizontal" unicode="&#xe8b3;" d="M857 394l-188 188c-11 11-26 18-44 18-34 0-62-28-62-62v-375c0-35 28-63 62-63 18 0 33 7 44 18l188 188c11 11 18 27 18 44 0 18-7 33-18 44z m-482 206c-17 0-33-7-44-18l-188-188c-11-11-18-26-18-44 0-17 7-33 18-44l188-188c11-11 27-18 44-18 34 0 63 28 63 63v375c0 34-29 62-63 62z" horiz-adv-x="1000" />

<glyph glyph-name="double-caret-vertical" unicode="&#xe8b4;" d="M313 413h375c34 0 62 28 62 62 0 18-7 33-18 44l-188 188c-11 11-26 18-44 18-17 0-33-7-44-18l-188-188c-11-11-18-26-18-44 0-34 28-62 63-62z m375-125h-375c-35 0-63-29-63-63 0-17 7-33 18-44l188-188c11-11 27-18 44-18 18 0 33 7 44 18l188 188c11 11 18 27 18 44 0 34-28 63-62 63z" horiz-adv-x="1000" />

<glyph glyph-name="double-chevron-down" unicode="&#xe8b5;" d="M456 306c11-12 27-18 44-18 18 0 33 6 44 18l250 250c12 11 19 27 19 44 0 34-29 63-63 63-17 0-33-7-44-19l-206-206-206 206c-11 12-26 19-44 19-34 0-62-29-62-63 0-17 6-33 18-44l250-250z m294 44c-17 0-33-7-44-18l-206-206-206 206c-11 11-26 18-44 18-34 0-62-28-62-62 0-18 6-34 18-45l250-250c11-11 27-18 44-18 18 0 33 7 44 18l250 250c12 11 19 27 19 45 0 34-29 62-63 62z" horiz-adv-x="1000" />

<glyph glyph-name="double-chevron-left" unicode="&#xe8b6;" d="M276 350l205 206c12 11 19 27 19 44 0 34-28 63-62 63-18 0-34-7-45-19l-250-250c-11-11-18-26-18-44 0-17 7-33 18-44l250-250c11-12 27-18 45-18 34 0 62 28 62 62 0 18-7 33-18 44l-206 206z m312 0l206 206c12 11 19 27 19 44 0 34-29 63-63 63-17 0-33-7-44-19l-250-250c-12-11-18-26-18-44 0-17 6-33 18-44l250-250c11-12 27-18 44-18 34 0 63 28 63 62 0 18-7 33-19 44l-206 206z" horiz-adv-x="1000" />

<glyph glyph-name="double-chevron-right" unicode="&#xe8b7;" d="M563 350c0 18-7 33-19 44l-250 250c-11 12-26 19-44 19-34 0-62-29-62-63 0-17 6-33 18-44l206-206-206-206c-12-11-18-26-18-44 0-34 28-62 62-62 18 0 33 6 44 18l250 250c12 11 19 27 19 44z m294 44l-250 250c-11 12-27 19-44 19-35 0-63-29-63-63 0-17 7-33 18-44l206-206-205-206c-12-11-19-26-19-44 0-34 28-62 63-62 17 0 33 6 44 18l250 250c11 11 18 27 18 44 0 18-7 33-18 44z" horiz-adv-x="1000" />

<glyph glyph-name="double-chevron-up" unicode="&#xe8b8;" d="M250 350c18 0 33 7 44 18l206 206 206-205c11-12 27-19 44-19 34 0 63 28 63 63 0 17-7 33-19 44l-250 250c-11 11-26 18-44 18-17 0-33-7-44-18l-250-250c-12-11-18-27-18-44 0-35 28-63 62-63z m294 44c-11 12-26 19-44 19-17 0-33-7-44-19l-250-250c-12-11-18-26-18-44 0-34 28-62 62-62 18 0 33 6 44 18l206 206 206-206c11-12 27-18 44-18 34 0 63 28 63 62 0 18-7 33-19 44l-250 250z" horiz-adv-x="1000" />

<glyph glyph-name="drive-time" unicode="&#xe8b9;" d="M945 553h-66l-47 132c-12 33-48 68-79 78 0 0-83 25-253 25-170 0-252-25-252-25-32-10-67-45-79-78l-48-132h-66c-30 0-55-27-55-59 0-33 25-59 55-59h24l-16-22c-2-44 0-90 0-125v-313c0-41 23-63 62-63 39 0 63 22 63 63v63h625v-63c0-41 23-63 62-63 39 0 63 22 63 63v313c0 35-1 85 0 125l-17 23h24c30 0 55 26 55 58 0 32-25 59-55 59z m-632-328h-125v125h125v-125z m500 0h-125v125h125v-125z m0 250h-625c-12 0-4 51 0 63l45 101c4 12 6 24 17 24h500c11 0 13-12 17-24l46-101c3-12 11-63 0-63z" horiz-adv-x="1000" />

<glyph glyph-name="envelope" unicode="&#xe8ba;" d="M0 659v-618l309 309-309 309z m934 66h-868l434-434 434 434z m-401-533c-9-9-20-14-33-14-13 0-24 5-33 14l-92 92-309-309h868l-309 309-92-92z m158 158l309-309v618l-309-309z" horiz-adv-x="1000" />

<glyph glyph-name="error" unicode="&#xe8bb;" d="M529 792c-260 0-471-211-471-471 0-260 211-470 471-470 260 0 470 210 470 470 0 260-210 471-470 471z m59-765h-118v118h118v-118z m0 177h-118v411h118v-411z" horiz-adv-x="1000" />

<glyph glyph-name="expand-all" unicode="&#xe8bc;" d="M250 413c18 0 33 6 44 18l206 206 206-206c11-12 27-18 44-18 34 0 63 28 63 62 0 18-7 33-19 44l-250 250c-11 12-26 19-44 19-17 0-33-7-44-19l-250-250c-12-11-18-26-18-44 0-34 28-62 62-62z m500-125c-17 0-33-7-44-19l-206-206-206 206c-11 12-26 19-44 19-34 0-62-29-62-63 0-17 6-33 18-44l250-250c11-12 27-19 44-19 18 0 33 7 44 19l250 250c12 11 19 27 19 44 0 34-29 63-63 63z" horiz-adv-x="1000" />

<glyph glyph-name="eye-off" unicode="&#xe8bd;" d="M1000 352c0 1 0 1 0 1v1c0 0 0 0 0 1 0 1 0 1 0 1-1 9-5 17-11 23-30 39-66 75-103 107l-197-141c-3-101-85-181-186-181-20 0-38 4-55 9l-130-92c28-12 56-22 86-29 60-14 121-15 182-3 55 10 109 34 158 61 79 44 150 104 212 172 11 12 23 26 33 39 5 6 9 13 10 22 0 1 0 1 0 1 0 1 0 1 0 2v0c0 1 0 1 0 2 0 0 0 1 0 1 1 2 1 2 1 3z m-27 261c16 11 27 28 27 50 0 34-28 62-62 62-14 0-26-5-36-12l-1 0-167-119c-43 24-88 43-135 54-60 15-121 15-182 3-55-11-109-33-158-62-78-43-150-104-211-171-12-13-24-26-34-39-14-18-14-40 0-58 32-41 69-78 108-112 11-10 24-18 35-27l-131-94 1 0c-16-12-27-29-27-50 0-35 28-63 63-63 13 0 25 5 35 12l1 0 875 625-1 1z m-650-313c-5 16-7 33-7 50 0 103 83 186 187 186 38 0 74-13 103-33l-283-203z" horiz-adv-x="1000" />

<glyph glyph-name="eye-on" unicode="&#xe8be;" d="M643 431c11-11 27-18 45-18 17 0 33 7 44 18l250 250c11 12 18 27 18 44 0 34-28 63-62 63-18 0-34-7-45-19l-205-205-81 80c-11 12-27 19-44 19-35 0-63-28-63-63 0-17 8-32 19-44l124-125z m357-78c0 0 0 0 0 1v0c0 1 0 1 0 2 0 0 0 0 0 1-1 9-5 17-11 22-18 25-40 48-62 70l-106-106c-35-34-82-55-133-55-4 0-7 1-11 1-26-73-94-126-176-126-104 0-188 84-188 188 0 67 35 125 87 158-15 27-24 58-24 91 0 16 2 31 6 46-44-12-86-31-126-53-78-44-150-105-212-174-11-13-23-25-33-39-14-18-14-40 0-58 32-42 70-79 108-113 83-73 178-135 283-160 61-14 122-15 182-3 56 12 109 34 159 62 78 45 150 106 212 174 11 12 23 26 34 39 5 7 9 15 10 23 0 1 0 1 0 2 0 0 0 0 0 1v1c0 0 0 0 0 1 0 0 0 1 0 2 1 0 1 1 1 2z m-499-65c30 0 54 21 60 50-2 2-3 4-5 6l-1-1-67 68c-29-7-50-30-50-60 0-35 28-63 63-63z" horiz-adv-x="1000" />

<glyph glyph-name="eye-open" unicode="&#xe8bf;" d="M500 412c-34 0-62-28-62-62 0-35 28-63 62-63 35 0 63 28 63 63 0 34-28 62-63 62z m499-60c0 0 0 0 0 1v0c0 1 0 1 0 2 0 0 0 0 0 1-1 9-5 16-10 23-32 42-70 78-109 112-83 74-178 135-282 159-62 16-122 16-183 4-56-11-109-34-159-62-78-44-150-105-213-173-11-14-22-26-33-40-13-18-13-40 0-58 32-42 70-79 109-113 83-73 178-135 283-159 60-14 121-15 182-3 56 12 109 34 160 62 78 45 149 106 212 174 11 13 23 26 33 40 6 6 10 14 11 22 0 1 0 1 0 1 0 1 0 1 0 2v0c0 1 0 1 0 1 0 1 0 2 0 2 0 1-1 1-1 2z m-499-190c-103 0-187 84-187 188 0 104 84 188 187 188 104 0 187-84 187-188 0-104-83-188-187-188z" horiz-adv-x="1000" />

<glyph glyph-name="feed-subscribed" unicode="&#xe8c0;" d="M188 725c66 0 130-10 191-28 8 44 32 82 65 110-80 27-166 43-256 43-35 0-63-28-63-62 0-35 28-63 63-63z m-63-625c-69 0-125-56-125-125 0-69 56-125 125-125 69 0 125 56 125 125 0 69-56 125-125 125z m520 396c11-12 27-18 44-18 17 0 32 6 44 18l248 248c12 12 19 27 19 44 0 35-28 62-62 62-18 0-33-7-44-18l-205-205-81 81c-11 11-27 18-44 18-34 0-62-28-62-62 0-17 7-33 18-44l125-124z m233-33l-58-59-1 2c-11-11-22-21-35-28 58-100 91-217 91-340 0-35 28-63 63-63 34 0 62 28 62 63 0 156-46 301-122 425z m-690-113c-35 0-63-28-63-62 0-35 28-63 63-63 103 0 187-84 187-187 0-35 28-63 63-63 34 0 62 28 62 63 0 172-140 312-312 312z m369 57l-2-2-125 125 2 2c-7 7-14 12-21 21-68 30-143 47-223 47-35 0-63-28-63-62 0-35 28-63 63-63 241 0 437-196 437-437 0-35 28-63 63-63 34 0 62 28 62 63 0 116-36 225-97 316-38 7-70 26-96 53z" horiz-adv-x="1000" />

<glyph glyph-name="feed" unicode="&#xe8c1;" d="M176 86c-65 0-118-53-118-118 0-65 53-117 118-117 65 0 118 52 118 117 0 65-53 118-118 118z m59 235c-33 0-59-26-59-59 0-32 26-58 59-58 97 0 176-79 176-177 0-32 27-59 59-59 32 0 59 27 59 59 0 162-132 294-294 294z m0 236c-33 0-59-27-59-59 0-33 26-59 59-59 227 0 412-184 412-412 0-32 26-59 58-59 33 0 59 27 59 59 0 292-237 530-529 530z m0 235c-33 0-59-27-59-59 0-32 26-59 59-59 357 0 647-289 647-647 0-32 26-59 59-59 32 0 58 27 58 59 0 422-342 765-764 765z" horiz-adv-x="1000" />

<glyph glyph-name="flag" unicode="&#xe8c2;" d="M205 615c-32 0-58-26-58-58v-648c0-32 26-58 58-58 33 0 59 26 59 58v648c0 32-26 58-59 58z m0 177c-32 0-58-27-58-59 0-32 26-59 58-59 33 0 59 27 59 59 0 32-26 59-59 59z m118-178v-426c122 124 348-103 529 0v426c-176-122-408 119-529 0z" horiz-adv-x="1000" />

<glyph glyph-name="floppy-disk" unicode="&#xe8c3;" d="M982 707l-125 125c-11 11-27 18-44 18h-63v-375h-500v375h-187c-35 0-63-28-63-62v-876c0-34 28-62 63-62h875c34 0 62 28 62 62v751c0 17-7 33-18 44z m-107-795h-750v376c0 34 28 62 63 62h625c34 0 62-28 62-62v-376z m-187 876h-125v-250h125v250z" horiz-adv-x="1000" />

<glyph glyph-name="follower" unicode="&#xe8c4;" d="M610 74c-71 31-61 50-63 76-1 4-1 7-1 11 24 22 44 51 57 85 0 0 1 2 1 2 3 8 5 16 7 23 16 4 26 21 29 37 4 7 11 23 9 41-2 24-11 35-22 40 0 1 0 3 0 4 0 31-3 74-8 102-1 10-3 17-5 26-11 35-33 66-62 88-30 23-73 35-111 35-37 0-80-12-110-35-29-22-51-54-62-88-2-8-4-16-5-24-5-29-8-73-8-103 0-1 0-2 0-3-11-4-21-16-24-40-1-19 6-35 10-42 3-16 13-34 30-37 2-8 5-16 7-23 0-1 1-1 1-1v-1c13-35 34-65 58-86 0-3 0-7 0-10-3-26 4-44-66-76-71-31-177-64-199-114-22-52-13-82-13-82h762c0 0 9 30-13 80-22 50-128 84-199 115z m372 612l-117 118c-11 10-26 17-42 17-32 0-59-27-59-59 0-17 7-31 17-42l18-17h-152c-33 0-59-26-59-59 0-32 26-59 59-59h151l-17-17c-10-10-17-25-17-41 0-33 27-59 59-59 16 0 31 6 42 17l117 117c11 11 17 26 17 42 0 17-6 31-17 42z" horiz-adv-x="1000" />

<glyph glyph-name="following" unicode="&#xe8c5;" d="M610 74c-71 31-61 50-63 76-1 4-1 7-1 11 24 22 44 51 57 85 0 0 1 2 1 2 3 8 5 16 7 23 16 4 26 21 29 37 4 7 11 23 9 41-2 24-11 35-22 40 0 1 0 3 0 4 0 31-3 74-8 102-1 10-3 17-5 26-11 35-33 66-62 88-30 23-73 35-111 35-37 0-80-12-110-35-29-22-51-54-62-88-2-8-4-16-5-24-5-29-8-73-8-103 0-1 0-2 0-3-11-4-21-16-24-40-1-19 6-35 10-42 3-16 13-34 30-37 2-8 5-16 7-23 0-1 1-1 1-1v-1c13-35 34-65 58-86 0-3 0-7 0-10-3-26 4-44-66-76-71-31-177-64-199-114-22-52-13-82-13-82h762c0 0 9 30-13 80-22 50-128 84-199 115z m331 629h-152l17 17c11 11 17 25 17 42 0 32-26 59-59 59-16 0-31-7-42-17l-117-118c-10-11-17-25-17-42 0-16 6-31 17-42l117-117c12-11 26-17 42-17 33 0 59 26 59 59 0 16-6 31-17 41l-17 17h152c32 0 58 27 58 59 0 33-26 59-58 59z" horiz-adv-x="1000" />

<glyph glyph-name="geolocation" unicode="&#xe8c6;" d="M58 399l432-117 118-431 391 941-941-393z" horiz-adv-x="1000" />

<glyph glyph-name="hand-down" unicode="&#xe8c7;" d="M920 358c-96 42-187 168-231 247-57 123-68 245-305 245-131 0-215-38-264-132-41-78-57-194-57-357v-50c0-40 37-73 84-73 21 0 40 6 55 18 11-30 42-53 81-53 25 0 48 10 64 26 14-23 42-39 74-39 36 0 66 19 78 46l1-39v-253c0-52 42-94 94-94 52 0 94 42 94 94v412c36-25 96-75 154-80 98-9 114 67 78 82z" horiz-adv-x="1000" />

<glyph glyph-name="hand-left" unicode="&#xe8c8;" d="M755 539c-79 45-204 135-247 232-15 35-91 19-82-78 5-59 55-119 81-155h-413c-52 0-94-42-94-94 0-52 42-94 94-94h253l39-1c-27-12-47-43-47-78 0-32 17-60 40-74-16-16-26-38-26-64 0-39 21-70 52-81-11-15-18-34-18-55 0-47 34-85 74-85h50c163 0 279 18 357 58 94 49 132 134 132 264 0 237-122 248-245 305z" horiz-adv-x="1000" />

<glyph glyph-name="hand-right" unicode="&#xe8c9;" d="M906 538h-413c26 36 76 96 81 154 10 97-66 114-82 78-42-96-168-187-247-231-123-57-245-68-245-305 0-131 38-215 133-264 77-41 193-58 356-58h50c40 0 74 38 74 85 0 21-7 40-19 55 30 11 53 42 53 81 0 25-10 48-26 64 23 14 39 42 39 74 0 36-19 66-46 78l39 1h253c52 0 94 42 94 94 0 52-42 94-94 94z" horiz-adv-x="1000" />

<glyph glyph-name="hand-up" unicode="&#xe8ca;" d="M853 463c-21 0-40-7-55-18-10 30-42 53-80 53-26 0-49-10-65-27-14 23-42 40-74 40-36 0-66-20-78-47l-1 39v253c0 52-42 94-94 94-52 0-93-42-93-94v-413c-37 26-97 76-155 81-98 9-114-66-78-82 96-42 187-168 231-247 57-123 68-245 305-245 131 0 215 38 264 132 40 78 58 194 58 357v50c0 40-38 74-85 74z" horiz-adv-x="1000" />

<glyph glyph-name="helper-management" unicode="&#xe8cb;" d="M813 538h-125v-125h125v125z m0-375h-125v-125h125v125z m0 187h-125v-125h125v125z m125 500h-875c-38 0-63-25-63-62v-876c0-37 25-62 63-62h875c37 0 62 25 62 62v876c0 37-25 62-62 62z m-63-875h-750v750h750v-750z m-437 188h-125v-125h125v125z m187 0h-125v-125h125v125z" horiz-adv-x="1000" />

</font>
</defs>
</svg>
